Loading...
Error

Скачать На холостом ходу / Running on Empty (Сидни Люмет) [1988, драма, мелодрама, криминал, музыка, BDRip] [720p] [DVO]+[Eng]+[Sub Rus] торрент без регистрации

Статистика раздачи
Размер:  6,98 GB   |    Скачан:  2 раза
Сидов:  6  [  0 KB/s  ]  

 
 
 
Автор Сообщение

Marsianka

[] 

На холостом ходу / Running on Empty

«In 1971, Arthur and Annie Pope blew up a napalm lab to protest the war...

Русское название: На холостом ходу
Оригинальное название: Running on Empty
Год выпуска: 1988
Жанр: драма, мелодрама, криминал, музыка
Выпущено: США
Режиссер: Сидни Люмет
В ролях: Кристин Лати , Ривер Феникс , Джадд Хёрш , Йонас Эйбри , Марта Плимптон , Эд Краули , Л. М. Кит Карсон , Стивен Хилл , Аугуста Дэбни , Дэвид Маргулис , Линн Тигпен , Марсия Джин Кертц
Перевод: Профессиональный двухголосый


Сюжет фильма:
17-летний Денни, старший сын в семье Энни и Артура Поуп. Вот уже 15 лет семейство Поупов живет под вымышленными именами. Когда-то, в бурные 60-е, родители Денни под воздействием больших перемен в обществе и политике стали активистами антивоенного движения и попали в «черные списки». С тех пор у них началась нелегальная жизнь. Но сыновья подросли, и кочевать с места на место становится все сложнее. К тому же в Денни вдруг проявляется врожденный талант пианиста, и он получает приглашение из престижной музыкальной школы.



Качество: BDRip 720p
Формат: AVC (библиотека кодирования x.264)
Контейнер (Расширение): MKV
Видео: 1280x720, 8217 Кбит/сек, 23,976 кадр/сек, 0,372 Бит/[Пиксели*Кадры]
Аудио №1: русский / AC3 / 2.0 / 48 kHz / 192 kbps / |Профессиональный двухголосый|
Аудио №2: английский / AC3 / 2.0 / 48 kHz / 192 kbps /
Субтитры: русские
Навигация по главам(Чаптеры): есть
Продолжительность: 01:56:15

Автор рипа: Группа:

Format : Matroska
Format version : Version 2
File size : 6.98 GiB
Duration : 1 h 56 min
Overall bit rate : 8 600 kb/s
Movie name : Running on Empty.(1988).BDRip.720p.[denis100]
Encoded date : UTC 2017-07-15 09:12:58
Writing application : mkvmerge v5.8.0 ('No Sleep / Pillow') built on Sep 2 2012 15:37:04
Writing library : libebml v1.2.3 + libmatroska v1.3.0

Video
ID : 1
Format : AVC
Format/Info : Advanced Video Codec
Format profile : High@L4.1
Format settings, CABAC : Yes
Format settings, ReFrames : 9 frames
Codec ID : V_MPEG4/ISO/AVC
Duration : 1 h 56 min
Bit rate : 8 217 kb/s
Width : 1 280 pixels
Height : 720 pixels
Display aspect ratio : 16:9
Frame rate mode : Constant
Frame rate : 23.976 (24000/1001) FPS
Color space : YUV
Chroma subsampling : 4:2:0
Bit depth : 8 bits
Scan type : Progressive
Bits/(Pixel*Frame) : 0.372
Stream size : 6.53 GiB (94%)
Title : Running on Empty.(1988).BDRip.720p.[denis100]
Writing library : x264 core 152 r2851 ba24899
Encoding settings : cabac=1 / ref=9 / deblock=1:-3:-3 / analyse=0x3:0x133 / me=umh / subme=11 / psy=1 / psy_rd=1.00:0.10 / mixed_ref=1 / me_range=32 / chroma_me=1 / trellis=2 / 8x8dct=1 / cqm=0 / deadzone=21,11 / fast_pskip=0 / chroma_qp_offset=-3 / threads=6 / lookahead_threads=1 / sliced_threads=0 / nr=0 / decimate=1 / interlaced=0 / bluray_compat=0 / constrained_intra=0 / bframes=12 / b_pyramid=2 / b_adapt=2 / b_bias=0 / direct=3 / weightb=1 / open_gop=0 / weightp=2 / keyint=240 / keyint_min=23 / scenecut=40 / intra_refresh=0 / rc=2pass / mbtree=0 / bitrate=8217 / ratetol=1.0 / qcomp=0.60 / qpmin=0 / qpmax=69 / qpstep=4 / cplxblur=20.0 / qblur=0.5 / ip_ratio=1.40 / pb_ratio=1.30 / aq=1:0.75
Language : English
Default : Yes
Forced : No

Audio #1
ID : 2
Format : AC-3
Format/Info : Audio Coding 3
Mode extension : CM (complete main)
Format settings, Endianness : Big
Codec ID : A_AC3
Duration : 1 h 56 min
Bit rate mode : Constant
Bit rate : 192 kb/s
Channel(s) : 2 channels
Channel positions : Front: L R
Sampling rate : 48.0 kHz
Frame rate : 31.250 FPS (1536 spf)
Compression mode : Lossy
Stream size : 160 MiB (2%)
Title : DVO
Language : Russian
Default : Yes
Forced : No

Audio #2
ID : 3
Format : AC-3
Format/Info : Audio Coding 3
Mode extension : CM (complete main)
Format settings, Endianness : Big
Codec ID : A_AC3
Duration : 1 h 56 min
Bit rate mode : Constant
Bit rate : 192 kb/s
Channel(s) : 2 channels
Channel positions : Front: L R
Sampling rate : 48.0 kHz
Frame rate : 31.250 FPS (1536 spf)
Compression mode : Lossy
Stream size : 160 MiB (2%)
Language : English
Default : No
Forced : No

Text
ID : 4
Format : UTF-8
Codec ID : S_TEXT/UTF8
Codec ID/Info : UTF-8 Plain Text
Language : Russian
Default : No
Forced : No

Menu
00:00:00.000 : en:Chapter 01
00:01:49.108 : en:Chapter 02
00:07:56.475 : en:Chapter 03
00:12:17.820 : en:Chapter 04
00:15:02.359 : en:Chapter 05
00:18:29.106 : en:Chapter 06
00:20:31.395 : en:Chapter 07
00:24:25.462 : en:Chapter 08
00:29:26.681 : en:Chapter 09
00:31:59.916 : en:Chapter 10
00:34:55.217 : en:Chapter 11
00:37:09.726 : en:Chapter 12
00:40:31.429 : en:Chapter 13
00:43:14.592 : en:Chapter 14
00:45:24.804 : en:Chapter 15
00:48:10.219 : en:Chapter 16
00:54:01.237 : en:Chapter 17
00:58:52.570 : en:Chapter 18
01:05:15.911 : en:Chapter 19
01:07:22.371 : en:Chapter 20
01:09:18.988 : en:Chapter 21
01:17:00.613 : en:Chapter 22
01:21:37.390 : en:Chapter 23
01:23:32.423 : en:Chapter 24
01:27:24.322 : en:Chapter 25
01:29:39.622 : en:Chapter 26
01:34:16.192 : en:Chapter 27
01:41:26.078 : en:Chapter 28
01:44:50.074 : en:Chapter 29
01:47:23.310 : en:Chapter 30
01:51:26.304 : en:Chapter 31
01:54:19.853 : en:Chapter 32
01:56:13.966 : en:Chapter 33




Скачать На.холостом.ходу.Running.on.Empty.(Сидни.Люмет).[1988.драма.мелодрама.криминал.музыка.BDRip].[720p].[DVO]+[Eng]+[Sub.Rus].torrent без регистрации
Золото ЗОЛОТАЯ РАЗДАЧА! СКАЧАННОЕ НЕ ЗАСЧИТЫВАЕТСЯ! Золото
Дата: Зарегистрирован   [ Тип: внешний ] Как тут cкачать?
MAGNET ссылка
MAGNET ссылка


Скачать .torrent

36 KB

Статус: проверено DHT
Скачан: торрент - 2 раз, раздача полностью - 0 раз
Размер: 6,98 GB
Оценка:  - (Голосов: 0)
Поблагодарили: 0
Поделиться ссылкой на эту раздачу с друзьями:
В контактеFacebookОдноклассникиTwitterLivejournalМой МирLiveinternet
 

 
Показать сообщения:    


Вы не можете начинать темы
Вы не можете отвечать на сообщения
Вы не можете редактировать свои сообщения
Вы не можете удалять свои сообщения
Вы не можете голосовать в опросах
Вы не можете прикреплять файлы к сообщениям
Вы можете скачивать файлы