Loading...
Error

Скачать Человек-ракета / RocketMan (Стюарт Гиллард) [1997, фантастика, мелодрама, комедия, WEBDLRip-AVC] [MVO]+[DVO]+[Оригинал]+[Sub Eng] торрент без регистрации

Статистика раздачи
Размер:  1,6 GB   |    Скачан:  4 раза
Сидов:  16  [  0 KB/s  ]  

 
 
 
Автор Сообщение

Marsianka

[] 

Информация о фильме
Название: Человек-ракета
Оригинальное название: RocketMan
Год выхода: 1997
Жанр: фантастика, мелодрама, комедия
Режиссер: Стюарт Гиллард
В ролях: Харланд Уильямс, Джессика Ланди, Уильям Сэдлер, Джеффри ДеМанн, Джеймс Пикенс мл., Бо Бриджес, Питер Онорати, Дон Лейк, Уильям Артур Дженкинс, Кен Фармер

О фильме:
Когда компьютерный гений Фред Рэндэлл создал новую навигационную систему, у него появился реальный шанс испытать ее на деле. После того, как новоиспеченный космонавт случайно покалечил двух «коллег» из его группы, отправляющейся на Марс, он вынужден занять их место на корабле.
Командир экипажа недоволен подобной заменой: вместо первоклассных летчиков ему достается балбес — новичок, прошедший неполный курс подготовки. Единственный на борту, кто понимает Фреда без слов, — шимпанзе по кличке Одиссей, настоящий космический волк. Но на Марсе корабль землян поджидают опасности. Профессионалы бессильны, но, как известно, новичкам всегда везет.



Страна: США
Студия: Caravan Pictures, Gold/Miller Productions, Roger Birnbaum Productions
Продолжительность: 01:34:01
Перевод: Профессиональный (многоголосый закадровый) + Профессиональный (двухголосый закадровый)

Файл
Кодек: H.264
Качество: WEB-DLRip-AVC от SuperMin
Видео: 1040x560 (1.85:1), 1726 kbps, 23.976 fps

Русский (AC-3, 2ch, 192 kbps) - многоголосый закадровый
Русский (AC-3, 1ch, 128 kbps) - двухголосый закадровый
Оригинал (AC-3, 6ch, 384 kbps)
Субтитры: английские
x264 [info]: frame I:1273 Avg QP:16.90 size: 55981
x264 [info]: frame P:30430 Avg QP:18.10 size: 19568
x264 [info]: frame B:103543 Avg QP:21.70 size: 5313
x264 [info]: consecutive B-frames: 2.3% 2.3% 8.8% 22.9% 25.5% 33.0% 3.6% 1.1% 0.5%
x264 [total]: encoded 135246 frames, 8.47 fps, 1725.70 kb/s
General
Unique ID : 206858331839994068185887618395511506208 (0x9B9F772E865FC2FDB2A85B29AC54C520)
Complete name : E:ФИЛЬМЫЧеловек-ракета.1997.x264.WEBDLRip-AVC.mkv
Format : Matroska
Format version : Version 4 / Version 2
File size : 1.60 GiB
Duration : 1 h 34 min
Overall bit rate : 2 432 kb/s
Movie name : Человек-ракета / RocketMan (1997) - #LORDKILL#
Encoded date : UTC 2017-07-15 09:35:19
Writing application : mkvmerge v9.9.0 ('Pick Up') 64bit
Writing library : libebml v1.3.4 + libmatroska v1.4.5

Video
ID : 1
Format : AVC
Format/Info : Advanced Video Codec
Format profile : High@L4.1
Format settings, CABAC : Yes
Format settings, ReFrames : 12 frames
Codec ID : V_MPEG4/ISO/AVC
Duration : 1 h 34 min
Bit rate : 1 726 kb/s
Width : 1 040 pixels
Height : 560 pixels
Display aspect ratio : 1.85:1
Frame rate mode : Constant
Frame rate : 23.976 (24000/1001) FPS
Color space : YUV
Chroma subsampling : 4:2:0
Bit depth : 8 bits
Scan type : Progressive
Bits/(Pixel*Frame) : 0.124
Stream size : 1.13 GiB (71%)
Writing library : x264 core 146 r2538 121396c
Encoding settings : cabac=1 / ref=12 / deblock=1:-2:-2 / analyse=0x3:0x113 / me=umh / subme=11 / psy=1 / psy_rd=1.00:0.10 / mixed_ref=1 / me_range=64 / chroma_me=1 / trellis=2 / 8x8dct=1 / cqm=0 / deadzone=21,11 / fast_pskip=0 / chroma_qp_offset=-3 / threads=12 / lookahead_threads=2 / sliced_threads=0 / nr=0 / decimate=1 / interlaced=0 / bluray_compat=0 / constrained_intra=0 / bframes=8 / b_pyramid=2 / b_adapt=2 / b_bias=0 / direct=1 / weightb=1 / open_gop=0 / weightp=2 / keyint=240 / keyint_min=23 / scenecut=40 / intra_refresh=0 / rc=crf / mbtree=0 / crf=19.0 / qcomp=0.60 / qpmin=0 / qpmax=69 / qpstep=4 / ip_ratio=1.40 / pb_ratio=1.30 / aq=1:1.00
Language : English
Default : Yes
Forced : No

Audio #1
ID : 2
Format : AC-3
Format/Info : Audio Coding 3
Mode extension : CM (complete main)
Format settings, Endianness : Big
Codec ID : A_AC3
Duration : 1 h 34 min
Bit rate mode : Constant
Bit rate : 192 kb/s
Channel(s) : 2 channels
Channel positions : Front: L R
Sampling rate : 48.0 kHz
Frame rate : 31.250 FPS (1536 spf)
Bit depth : 16 bits
Compression mode : Lossy
Stream size : 129 MiB (8%)
Title : MVO
Language : Russian
Default : Yes
Forced : No

Audio #2
ID : 3
Format : AC-3
Format/Info : Audio Coding 3
Mode extension : CM (complete main)
Format settings, Endianness : Big
Codec ID : A_AC3
Duration : 1 h 34 min
Bit rate mode : Constant
Bit rate : 128 kb/s
Channel(s) : 1 channel
Channel positions : Front: C
Sampling rate : 48.0 kHz
Frame rate : 31.250 FPS (1536 spf)
Bit depth : 16 bits
Compression mode : Lossy
Stream size : 86.1 MiB (5%)
Title : DVO
Language : Russian
Default : No
Forced : No

Audio #3
ID : 4
Format : AC-3
Format/Info : Audio Coding 3
Mode extension : CM (complete main)
Format settings, Endianness : Big
Codec ID : A_AC3
Duration : 1 h 34 min
Bit rate mode : Constant
Bit rate : 384 kb/s
Channel(s) : 6 channels
Channel positions : Front: L C R, Side: L R, LFE
Sampling rate : 48.0 kHz
Frame rate : 31.250 FPS (1536 spf)
Bit depth : 16 bits
Compression mode : Lossy
Stream size : 258 MiB (16%)
Language : English
Default : No
Forced : No

Text
ID : 5
Format : UTF-8
Codec ID : S_TEXT/UTF8
Codec ID/Info : UTF-8 Plain Text
Duration : 1 h 32 min
Bit rate : 59 b/s
Count of elements : 1197
Stream size : 40.4 KiB (0%)
Language : English
Default : No
Forced : No

Menu
00:00:00.000 : en:Chapter 1
00:08:58.000 : en:Chapter 2
00:19:23.000 : en:Chapter 3
00:31:14.000 : en:Chapter 4
00:42:18.000 : en:Chapter 5
00:51:24.000 : en:Chapter 6
01:00:48.000 : en:Chapter 7
01:11:05.000 : en:Chapter 8
01:19:35.000 : en:Chapter 9
01:27:46.000 : en:Chapter 10




Скачать Человек-ракета.RocketMan.(Стюарт.Гиллард).[1997.фантастика.мелодрама.комедия.WEBDLRip-AVC].[MVO]+[DVO]+[Оригинал]+[Sub.Eng].torrent без регистрации
Золото ЗОЛОТАЯ РАЗДАЧА! СКАЧАННОЕ НЕ ЗАСЧИТЫВАЕТСЯ! Золото
Дата: Зарегистрирован   [ Тип: внешний ] Как тут cкачать?
MAGNET ссылка
MAGNET ссылка


Скачать .torrent

17 KB

Статус: проверено DHT
Скачан: торрент - 4 раз, раздача полностью - 3 раз
Размер: 1,6 GB
Оценка:  - (Голосов: 0)
Поблагодарили: 0
Поделиться ссылкой на эту раздачу с друзьями:
В контактеFacebookОдноклассникиTwitterLivejournalМой МирLiveinternet
 

 
Показать сообщения:    


Вы не можете начинать темы
Вы не можете отвечать на сообщения
Вы не можете редактировать свои сообщения
Вы не можете удалять свои сообщения
Вы не можете голосовать в опросах
Вы не можете прикреплять файлы к сообщениям
Вы можете скачивать файлы