Loading...
Error

Скачать Человек-ракета / RocketMan (Стюарт Гиллард) [1997, фантастика, мелодрама, комедия, семейный, WEB-DLRip] [1080p] [MVO]+[DVO]+[AVO]+[Eng]+[Sub Eng] торрент без регистрации

Статистика раздачи
Размер:  3,94 GB   |    Скачан:  8 раз
Сидов:  1  [  0 KB/s  ]  
 
 
 
Автор Сообщение

Marsianka

[] 

Информация о фильме
Название: Человек-ракета
Оригинальное название: RocketMan
Год выхода: 1997
Жанр: фантастика, мелодрама, комедия, семейный
Режиссер: Стюарт Гиллард
В ролях: Харланд Уильямс, Джессика Ланди, Уильям Сэдлер, Джеффри ДеМанн, Джеймс Пикенс мл., Бо Бриджес, Питер Онорати, Дон Лейк, Уильям Артур Дженкинс, Кен Фармер

О фильме:
Когда компьютерный гений Фред Рэндэлл создал новую навигационную систему, у него появился реальный шанс испытать ее на деле. После того, как новоиспеченный космонавт случайно покалечил двух «коллег» из его группы, отправляющейся на Марс, он вынужден занять их место на корабле.
Командир экипажа недоволен подобной заменой: вместо первоклассных летчиков ему достается балбес — новичок, прошедший неполный курс подготовки. Единственный на борту, кто понимает Фреда без слов, — шимпанзе по кличке Одиссей, настоящий космический волк. Но на Марсе корабль землян поджидают опасности. Профессионалы бессильны, но, как известно, новичкам всегда везет.



Страна: США
Студия: Caravan Pictures, Gold/Miller Productions, Roger Birnbaum Productions
Продолжительность: 01:34:01

1: Профессиональный (многоголосый закадровый)
2: Профессиональный (двухголосый закадровый) - (VHS)
3: Авторский Одноголосый закадровый

General
Unique ID : 188267119501730635931217851605207409597 (0x8DA2EDA5040B9C1E92CD1FEB4FAEE3BD)
Complete name : D:RocketMan.mkv
Format : Matroska
Format version : Version 4 / Version 2
File size : 3.94 GiB
Duration : 1h 34mn
Overall bit rate : 6 007 Kbps
Encoded date : UTC 2015-05-18 11:09:52
Writing application : mkvmerge v7.9.0 ('Birds') 64bit
Writing library : libebml v1.3.1 + libmatroska v1.4.2
DURATION : 01:34:00.864000000
NUMBER_OF_FRAMES : 176277
NUMBER_OF_BYTES : 90253824
_STATISTICS_WRITING_APP : mkvmerge v7.9.0 ('Birds') 64bit
_STATISTICS_WRITING_DATE_UT : 2015-05-18 11:09:52
_STATISTICS_TAGS : BPS DURATION NUMBER_OF_FRAMES NUMBER_OF_BYTES

Video
ID : 1
Format : AVC
Format/Info : Advanced Video Codec
Format profile : High@L4.0
Format settings, CABAC : Yes
Format settings, ReFrames : 4 frames
Codec ID : V_MPEG4/ISO/AVC
Duration : 1h 34mn
Bit rate : 4 959 Kbps
Width : 1 916 pixels
Height : 1 036 pixels
Display aspect ratio : 1.85:1
Frame rate mode : Constant
Frame rate : 23.976 fps
Color space : YUV
Chroma subsampling : 4:2:0
Bit depth : 8 bits
Scan type : Progressive
Bits/(Pixel*Frame) : 0.104
Stream size : 3.26 GiB (83%)
Language : English
Default : Yes
Forced : No
Color primaries : BT.709
Transfer characteristics : BT.709
Matrix coefficients : BT.709
Color range : Limited

Audio #1
ID : 2
Format : AC-3
Format/Info : Audio Coding 3
Mode extension : CM (complete main)
Format settings, Endianness : Big
Codec ID : A_AC3
Duration : 1h 34mn
Bit rate mode : Constant
Bit rate : 192 Kbps
Channel(s) : 2 channels
Channel positions : Front: L R
Sampling rate : 48.0 KHz
Bit depth : 16 bits
Compression mode : Lossy
Stream size : 129 MiB (3%)
Title : MVO
Language : Russian
Default : Yes
Forced : No

Audio #2
ID : 3
Format : AC-3
Format/Info : Audio Coding 3
Mode extension : CM (complete main)
Format settings, Endianness : Big
Codec ID : A_AC3
Duration : 1h 34mn
Bit rate mode : Constant
Bit rate : 128 Kbps
Channel(s) : 1 channel
Channel positions : Front: C
Sampling rate : 48.0 KHz
Bit depth : 16 bits
Compression mode : Lossy
Stream size : 86.1 MiB (2%)
Title : DVO
Language : Russian
Default : No
Forced : No

Audio #3
ID : 4
Format : AC-3
Format/Info : Audio Coding 3
Mode extension : CM (complete main)
Format settings, Endianness : Big
Codec ID : A_AC3
Duration : 1h 34mn
Bit rate mode : Constant
Bit rate : 224 Kbps
Channel(s) : 2 channels
Channel positions : Front: L R
Sampling rate : 48.0 KHz
Bit depth : 16 bits
Compression mode : Lossy
Stream size : 151 MiB (4%)
Title : VO
Language : Russian
Default : No
Forced : No

Audio #4
ID : 5
Format : AC-3
Format/Info : Audio Coding 3
Mode extension : CM (complete main)
Format settings, Endianness : Big
Codec ID : A_AC3
Duration : 1h 34mn
Bit rate mode : Constant
Bit rate : 384 Kbps
Channel(s) : 6 channels
Channel positions : Front: L C R, Side: L R, LFE
Sampling rate : 48.0 KHz
Bit depth : 16 bits
Compression mode : Lossy
Stream size : 258 MiB (6%)
Language : English
Default : No
Forced : No

Text
ID : 6
Format : UTF-8
Codec ID : S_TEXT/UTF8
Codec ID/Info : UTF-8 Plain Text
Language : English
Default : No
Forced : No

Menu
00:00:00.000 : en:Chapter 1
00:08:58.000 : en:Chapter 2
00:19:23.000 : en:Chapter 3
00:31:14.000 : en:Chapter 4
00:42:18.000 : en:Chapter 5
00:51:24.000 : en:Chapter 6
01:00:48.000 : en:Chapter 7
01:11:05.000 : en:Chapter 8
01:19:35.000 : en:Chapter 9
01:27:46.000 : en:Chapter 10
Файл
Кодек: XviD
Качество: WEB-DLRip 1080p
Видео: 1916x1036 (1.85:1), 23.976 fps, AVC, ~4959 Kbps, 0.104 bits/pixel
Аудио 1: Russian, 48.0 KHz, AC3, 2 ch, 192 Kbps - MVO
Аудио 2: Russian, 48.0 KHz, AC3, 1 ch, 128 Kbps - DVO
Аудио 3: Russian, 48.0 KHz, AC3, 2 ch, 224 Kbps - VO
Аудио 4: English, 48.0 KHz, AC3, 6 ch, 384 Kbps
Субтитры: английские




Скачать Человек-ракета.RocketMan.(Стюарт.Гиллард).[1997.фантастика.мелодрама.комедия.семейный.WEB-DLRip].[1080p].[MVO]+[DVO]+[AVO]+[Eng]+[Sub.Eng].torrent без регистрации
Золото ЗОЛОТАЯ РАЗДАЧА! СКАЧАННОЕ НЕ ЗАСЧИТЫВАЕТСЯ! Золото
Дата: Зарегистрирован   [ Тип: внутренний ] Как тут cкачать?
MAGNET ссылка
MAGNET ссылка


Скачать .torrent

21 KB

Статус: проверено DHT
Скачан: торрент - 8 раз, раздача полностью - 2 раз
Размер: 3,94 GB
Оценка:  - (Голосов: 0)
Поблагодарили: 0
Поделиться ссылкой на эту раздачу с друзьями:
В контактеFacebookОдноклассникиTwitterLivejournalМой МирLiveinternet
 

 
Показать сообщения:    


Вы не можете начинать темы
Вы не можете отвечать на сообщения
Вы не можете редактировать свои сообщения
Вы не можете удалять свои сообщения
Вы не можете голосовать в опросах
Вы не можете прикреплять файлы к сообщениям
Вы можете скачивать файлы