Loading...
Error

Скачать Очень страшное кино 4 / Scary Movie 4 (Дэвид Цукер) [2006 г., комедия, HDRip-AVC] [DUB] торрент без регистрации

Статистика раздачи
Размер:  745 MB   |    Скачан:  3 раза
Сидов:  18  [  0 KB/s  ]   Личеров:  5  [  0 KB/s  ]  

 
 
 
Автор Сообщение

durik

[] 

Очень страшное кино 4 / Scary Movie 4

Информация о фильме
Название: Очень страшное кино 4
Оригинальное название: Scary Movie 4
Год выхода: 2006
Жанр: комедия
Режиссер: Дэвид Цукер
В ролях: Анна Фэрис, Реджина Холл, Крэйг Бирко, Билл Пуллман, Энтони Андерсон, Лесли Нильсен, Молли Шеннон, Майкл Мэдсен, Крис Эллиот, Кармен Электра

О фильме:
Журналистка Синди Кэмпбелл все еще не может оправиться после ужасных событий, произошедших с ней за последнее время. Чтобы сменить обстановку, она устраивается на работу сиделкой к пожилой женщине.
Вскоре Синди знакомится с овдовевшим соседом Томом Райаном и влюбляется в него. Казалось бы, жизнь начинает налаживаться, как вдруг на Землю высаживаются инопланетяне, которые хотят уничтожить все человечество. Том и Синди вступают в отчаянную схватку с пришельцами…



Страна: США
Студия: Dimension Films, 415 Project, Brad Grey Pictures
Продолжительность: 01:29:32
Перевод: Дубляж

Файл
Кодек: AVC
Качество: HDRip-AVC
Видео: 768x416, 1089 kbps, 23,976 fps, 0,142 Bits/(Pixel*Frame)
Звук: AAC, 48 kHz, 2 ch, 72 kbps
Субтитры: русские форсированные, русские полные
Общее
Unique ID : 179186165826926068295669527310189420205 (0x86CE000FA31119939150129FC7FF5EAD)
Complete name : D:\Scary.Movie.4.2006.HDRip-AVC_by_Bathory.mkv
Format : Matroska
Format version : Version 4 / Version 2
File size : 745 Мбайт
Duration : 1 ч. 29 м.
Overall bit rate : 1163 Кбит/сек
Encoded date : UTC 2017-07-16 16:03:48
Writing application : mkvmerge v13.0.0 ('The Juggler') 64bit
Writing library : libebml v1.3.4 + libmatroska v1.4.5

Видео
ID : 1
Format : AVC
Format/Info : Advanced Video Codec
Format profile : High@L4.1
Format settings, CABAC : Да
Format settings, ReFrames : 10 кадров
Codec ID : V_MPEG4/ISO/AVC
Duration : 1 ч. 29 м.
Bit rate : 1089 Кбит/сек
Width : 768 пикселей
Height : 416 пикселей
Display aspect ratio : 1,85:1
Frame rate mode : Постоянный
Frame rate : 23,976 (23976/1000) кадра/сек
Original frame rate : 23,976 (24000/1001) кадра/сек
Color space : YUV
Chroma subsampling : 4:2:0
Bit depth : 8 бит
Scan type : Прогрессивная
Bits/(Pixel*Frame) : 0.142
Stream size : 697 Мбайт (94%)
Writing library : x264 core 148 r2744 b97ae06
Encoding settings : cabac=1 / ref=10 / deblock=1:-2:-2 / analyse=0x3:0x113 / me=umh / subme=11 / psy=1 / psy_rd=1.00:0.12 / mixed_ref=1 / me_range=32 / chroma_me=1 / trellis=2 / 8x8dct=1 / cqm=0 / deadzone=21,11 / fast_pskip=0 / chroma_qp_offset=-3 / threads=12 / lookahead_threads=3 / sliced_threads=0 / nr=0 / decimate=1 / interlaced=0 / bluray_compat=0 / constrained_intra=0 / bframes=10 / b_pyramid=2 / b_adapt=2 / b_bias=0 / direct=3 / weightb=1 / open_gop=0 / weightp=2 / keyint=240 / keyint_min=24 / scenecut=40 / intra_refresh=0 / rc_lookahead=60 / rc=2pass / mbtree=1 / bitrate=1089 / ratetol=1.0 / qcomp=0.60 / qpmin=0 / qpmax=69 / qpstep=4 / cplxblur=20.0 / qblur=0.5 / ip_ratio=1.40 / aq=1:1.00
Default : Да
Forced : Нет

Аудио
ID : 2
Format : AAC
Format/Info : Advanced Audio Codec
Format profile : HE-AAC / LC
Codec ID : A_AAC
Duration : 1 ч. 29 м.
Bit rate : 72,0 Кбит/сек
Channel(s) : 2 канала
Channel positions : Front: L R
Sampling rate : 48,0 КГц / 24,0 КГц
Frame rate : 23,438 кадра/сек (1024 spf)
Compression mode : С потерями
Delay relative to video : 31 мс.
Stream size : 46,1 Мбайт (6%)
Language : Russian
Default : Да
Forced : Нет

Текст #1
ID : 3
Format : UTF-8
Codec ID : S_TEXT/UTF8
Codec ID/Info : UTF-8 Plain Text
Duration : 1 ч. 8 м.
Bit rate : 14 бит/сек
Count of elements : 119
Stream size : 7,28 Кбайт (0%)
Title : Форсированные
Language : Russian
Default : Да
Forced : Да

Текст #2
ID : 4
Format : UTF-8
Codec ID : S_TEXT/UTF8
Codec ID/Info : UTF-8 Plain Text
Duration : 1 ч. 19 м.
Bit rate : 98 бит/сек
Count of elements : 1046
Stream size : 57,5 Кбайт (0%)
Title : Полные
Language : Russian
Default : Нет
Forced : Нет
Релиз от:




Скачать Очень.страшное.кино.4.Scary.Movie.4.(Дэвид.Цукер).[2006.г.комедия.HDRip-AVC].[DUB].torrent без регистрации
Золото ЗОЛОТАЯ РАЗДАЧА! СКАЧАННОЕ НЕ ЗАСЧИТЫВАЕТСЯ! Золото
Дата: Зарегистрирован   [ Тип: внешний ] Как тут cкачать?
MAGNET ссылка
MAGNET ссылка


Скачать .torrent

15 KB

Статус: * не проверено
Скачан: торрент - 3 раз, раздача полностью - 1 раз
Размер: 745 MB
Оценка:  - (Голосов: 0)
Поблагодарили: 0
Поделиться ссылкой на эту раздачу с друзьями:
В контактеFacebookОдноклассникиTwitterLivejournalМой МирLiveinternet
 

 
Показать сообщения:    


Вы не можете начинать темы
Вы не можете отвечать на сообщения
Вы не можете редактировать свои сообщения
Вы не можете удалять свои сообщения
Вы не можете голосовать в опросах
Вы не можете прикреплять файлы к сообщениям
Вы можете скачивать файлы