Loading...
Error

Скачать Анна Каренина. История Вронского (Карен Шахназаров) [2017, драма, WEB-DL] [720p] [iTunes] торрент без регистрации

Статистика раздачи
Размер:  4,09 GB   |    Скачан:  223 раза
Сидов:  1  [  0 KB/s  ]  
 
 
 
Автор Сообщение

Marsianka

[] 

Информация о фильме
Название: Анна Каренина. История Вронского
Год выхода: 2017
Жанр: драма
Режиссер: Карен Шахназаров
В ролях: Елизавета Боярская, Максим Матвеев, Виталий Кищенко, Кирилл Гребенщиков, Макар Михалкин, Татьяна Лютаева, Иван Колесников, Анастасия Макеева, София Сун, Дмитрий Гусев

О фильме:
1904 год. Русско-японская война. Маньчжурия. Российский военный госпиталь, отступая, занимает полузаброшенную китайскую деревню. Начальник госпиталя, Сергей Каренин, узнаёт, что раненый офицер, которого он оперирует, — граф Вронский, — тот, кто погубил его мать, Анну Каренину, и послужил косвенной причиной смерти отца. Не питая иллюзий и не ожидая ответа, Каренин всё же идёт к Вронскому и задаёт вопрос, который мучил его всю жизнь: что заставило его мать переступить черту? Граф Вронский, в свою очередь, узнаёт, что врач — тот самый Сережа Каренин. После некоторых сомнений граф соглашается поведать историю своей трагической любви к Анне Карениной, заметив, что люди помнят лишь то, что им удобно помнить.



Страна: Россия
Студия: Мосфильм
Продолжительность: 02:12:14
Перевод: Не требуется [оригинал] ~ iTunes

Файл
Кодек: MPEG-4 AVC
Качество: WEB-DL 720p | iTunes
Видео: 1280(960)x692, 3954kb/s, 25.000fps
Звук: 384kb/s, 6ch, 48000kHz, AC3 [RUS]
Субтитры:
Отсутствуют

РЕКЛАМА ОТСУТСТВУЕТ
Общее
Уникальный идентификатор : 223825170879580274673552516467017137591 (0xA86328EE94BD4DC1B25BC619D6403DB7)
Полное имя : G:MOVIESАнна Каренина. История Вронского RUS [WEB-DL 720р] iTunes.mkv
Формат : Matroska
Версия формата : Version 4 / Version 2
Размер файла : 4,09 Гбайт
Продолжительность : 2 ч. 12 м.
Общий поток : 4426 Кбит/сек
Название фильма : ANNA_KARENINA_HISTORY_OF_VRONSKY_2017_WEBDL_720P -BLUEBIRD
Дата кодирования : UTC 2017-07-15 18:10:50
Программа кодирования : mkvmerge v11.0.0 ('Alive') 32bit
Библиотека кодирования : libebml v1.3.4 + libmatroska v1.4.5
DURATION : 02:12:14.000000000
NUMBER_OF_FRAMES : 198350
NUMBER_OF_BYTES : 4006555218
_STATISTICS_WRITING_APP : mkvmerge v11.0.0 ('Alive') 32bit
_STATISTICS_WRITING_DATE_UTC : 2017-07-15 18:10:50
_STATISTICS_TAGS : BPS DURATION NUMBER_OF_FRAMES NUMBER_OF_BYTES

Видео
Идентификатор : 1
Формат : AVC
Формат/Информация : Advanced Video Codec
Профиль формата : Main@L3.1
Параметр CABAC формата : Нет
Параметр ReFrames формата : 2 кадра
Идентификатор кодека : V_MPEG4/ISO/AVC
Продолжительность : 2 ч. 12 м.
Битрейт : 3954 Кбит/сек
Ширина : 960 пикселей
Высота : 692 пикселя
Соотношение сторон : 1,85:1
Режим частоты кадров : Постоянный
Частота кадров : 25,000 кадров/сек
Цветовое пространство : YUV
Субдискретизация насыщенности : 4:2:0
Битовая глубина : 8 бит
Тип развёртки : Прогрессивная
Бит/(Пиксели*Кадры) : 0.238
Размер потока : 3,65 Гбайт (89%)
Заголовок : ANNA_KARENINA_HSTR_VRNSKY_2017_WEB_DL_720P
Язык : Russian
Default : Да
Forced : Нет
Основные цвета : BT.709
Характеристики трансфера : BT.709
Коэффициенты матрицы : BT.709

Аудио
Идентификатор : 2
Формат : AC-3
Формат/Информация : Audio Coding 3
Расширение режима : CM (complete main)
Параметр Endianness формата : Big
Идентификатор кодека : A_AC3
Продолжительность : 2 ч. 12 м.
Вид битрейта : Постоянный
Битрейт : 384 Кбит/сек
Каналы : 6 каналов
Расположение каналов : Front: L C R, Side: L R, LFE
Частота : 48,0 КГц
Битовая глубина : 16 бит
Метод сжатия : С потерями
Размер потока : 363 Мбайт (9%)
Заголовок : iTunes
Язык : Russian
Default : Да
Forced : Нет

Меню
00:00:00.000 : en:Chapter 01
00:07:03.640 : en:Chapter 02
00:15:05.680 : en:Chapter 03
00:19:29.920 : en:Chapter 04
00:27:05.640 : en:Chapter 05
00:34:18.120 : en:Chapter 06
00:38:05.400 : en:Chapter 07
00:45:10.680 : en:Chapter 08
00:51:34.000 : en:Chapter 09
00:57:14.680 : en:Chapter 10
01:02:48.800 : en:Chapter 11
01:08:07.560 : en:Chapter 12
01:12:42.400 : en:Chapter 13
01:18:46.640 : en:Chapter 14
01:24:15.920 : en:Chapter 15
01:29:57.520 : en:Chapter 16
01:36:48.320 : en:Chapter 17
01:44:09.760 : en:Chapter 18
01:49:36.840 : en:Chapter 19
01:57:45.640 : en:Chapter 20
02:03:38.960 : en:Chapter 21




Скачать Анна.Каренина.История.Вронского.(Карен.Шахназаров).[2017.драма.WEB-DL].[720p].[iTunes].torrent без регистрации
Золото ЗОЛОТАЯ РАЗДАЧА! СКАЧАННОЕ НЕ ЗАСЧИТЫВАЕТСЯ! Золото
Дата: Зарегистрирован   [ Тип: внутренний ] Как тут cкачать?
MAGNET ссылка
MAGNET ссылка


Скачать .torrent

11 KB

Статус: проверено DHT
Скачан: торрент - 223 раз, раздача полностью - 716 раз
Размер: 4,09 GB
Оценка:  4,7 (Голосов: 3)
Поблагодарили: 14
Поделиться ссылкой на эту раздачу с друзьями:
В контактеFacebookОдноклассникиTwitterLivejournalМой МирLiveinternet
 

 
Показать сообщения:    


Вы не можете начинать темы
Вы не можете отвечать на сообщения
Вы не можете редактировать свои сообщения
Вы не можете удалять свои сообщения
Вы не можете голосовать в опросах
Вы не можете прикреплять файлы к сообщениям
Вы можете скачивать файлы