Loading...
Error

Скачать Шальная карта / Wild Card (Саймон Уэст) [2015, Боевик, триллер, драма, криминал, BDRip][1080p] [DUB iTunes+MVO+AVO] [R.G. GoldenShara] торрент без регистрации

Статистика раздачи
Размер:  4,12 GB   |    Скачан:  90 раз
Сидов:  2  [  0 KB/s  ]  

 
 
 
Автор Сообщение

Magnetto83

[] 


Шальная карта / Wild Card




Год выпуска: 2015
Выпущено: США | Lionsgate, Current Entertainment, Cinema Seven Productions, SJ Pictures
Жанр: Боевик, триллер, драма, криминал
Продолжительность: 01:32:21
Перевод 1: Профессиональный (полное дублирование) | iTunes |
Перевод 2: Любительский многоголосый | Студия "Paradox" |
Перевод 3: Авторский одноголосый | М.Яроцкий |
Субтитры: Русские (полные), английские (full)
Навигация по главам: Сохранены оригинальные главы как на Blu-ray

Слоган: «Never bet against a man with a killer hand»

Режиссер: Саймон Уэст

В ролях: Джейсон Стэйтем, Майкл Ангарано, Майло Вентимилья, Доминик Гарсиа-Лоридо, Энн Хеч, София Вергара, Макс Казелла, Хоуп Дэвис

Описание: Главный герой - бывший военный Ник Уайлд - работает в Лас-Вегасе охранником, мечтает накопить денег и навсегда уехать на остров Корсика. Но Ник соглашается помочь давней знакомой Холли, которая подверглась насилию со стороны сына крупного гангстера, из-за чего его отъезд откладывается.



Возраст: 18+ (зрителям, достигшим 18 лет. запрещено для детей)
Рейтинг MPAA: R (лицам до 17 лет обязательно присутствие взрослого)

Качество: BDRip 1080p
Формат: MKV
Видео кодек: H.264
Аудио кодек: AC3
Видео: 1920x800 (2.40:1), 5246 Кбит/с, 23.976 fps
Аудио 1,2,3: Русский Dolby Digital 5.1 (384 Кбит/с)


x264 [info]: frame I:1136 Avg QP:17.56 size:155263
x264 [info]: frame P:27210 Avg QP:20.22 size: 47265
x264 [info]: frame B:104494 Avg QP:22.10 size: 20727
x264 [info]: consecutive B-frames: 1.9% 2.6% 7.5% 7.4% 19.4% 54.3% 3.8% 1.4% 1.9%
x264 [total]: encoded 132840 frames, 1.77 fps, 5238.93 kb/s



General
Complete name : I:\HD VIDEO\Мои Рипы 1080р По Годам\Кино Хиты 2015\Шальная Карта 2015 Dub iTunes+Mvo+Avo Rus BDRip 1080p.mkv
Format : Matroska
Format version : Version 4 / Version 2
File size : 4.12 GiB
Duration : 1h 32mn
Overall bit rate : 6 393 Kbps
Movie name : Шальная Карта 2015 Dub+Mvo+Avo Rus BDRip 1080p By R.G.GoldenShara
Encoded date : UTC 2017-07-16 14:27:52
Writing application : mkvmerge v7.8.0 ('River Man') 32bit built on Mar 27 2015 16:18:02
Writing library : libebml v1.3.1 + libmatroska v1.4.2
Attachements : cover.jpg
DURATION : 01:23:39.683000000
NUMBER_OF_FRAMES : 887
NUMBER_OF_BYTES : 33495
_STATISTICS_WRITING_APP : mkvmerge v7.8.0 ('River Man') 32bit built on Mar 27 2015 16:18:02
_STATISTICS_WRITING_DATE_UTC : 2017-07-16 14:27:52
_STATISTICS_TAGS : BPS DURATION NUMBER_OF_FRAMES NUMBER_OF_BYTES

Video
ID : 1
Format : AVC
Format/Info : Advanced Video Codec
Format profile : High@L4.1
Format settings, CABAC : Yes
Format settings, ReFrames : 5 frames
Codec ID : V_MPEG4/ISO/AVC
Duration : 1h 32mn
Bit rate : 5 246 Kbps
Width : 1 920 pixels
Height : 800 pixels
Display aspect ratio : 2.40:1
Frame rate mode : Constant
Frame rate : 23.976 fps
Color space : YUV
Chroma subsampling : 4:2:0
Bit depth : 8 bits
Scan type : Progressive
Bits/(Pixel*Frame) : 0.142
Stream size : 3.30 GiB (80%)
Title : Шальная Карта 2015 Dub+Mvo+Avo Rus BDRip 1080p By Magnetto 83
Writing library : x264 core 146 r2538 121396c
Encoding settings : cabac=1 / ref=5 / deblock=1:-3:-3 / analyse=0x3:0x113 / me=umh / subme=11 / psy=1 / psy_rd=1.00:0.00 / mixed_ref=1 / me_range=32 / chroma_me=1 / trellis=2 / 8x8dct=1 / cqm=0 / deadzone=21,11 / fast_pskip=0 / chroma_qp_offset=-2 / threads=3 / lookahead_threads=1 / sliced_threads=0 / nr=0 / decimate=1 / interlaced=0 / bluray_compat=0 / constrained_intra=0 / bframes=8 / b_pyramid=2 / b_adapt=2 / b_bias=0 / direct=3 / weightb=1 / open_gop=0 / weightp=2 / keyint=250 / keyint_min=23 / scenecut=40 / intra_refresh=0 / rc=2pass / mbtree=0 / bitrate=5246 / ratetol=1.0 / qcomp=0.60 / qpmin=0 / qpmax=69 / qpstep=4 / cplxblur=20.0 / qblur=0.5 / ip_ratio=1.40 / pb_ratio=1.30 / aq=2:1.00
Language : English
Default : Yes
Forced : No

Audio #1
ID : 2
Format : AC-3
Format/Info : Audio Coding 3
Mode extension : CM (complete main)
Format settings, Endianness : Big
Codec ID : A_AC3
Duration : 1h 32mn
Bit rate mode : Constant
Bit rate : 384 Kbps
Channel(s) : 6 channels
Channel positions : Front: L C R, Side: L R, LFE
Sampling rate : 48.0 KHz
Compression mode : Lossy
Stream size : 254 MiB (6%)
Title : DD 5.1 @ 384 Kbps - DUB | iTunes |
Language : Russian
Default : Yes
Forced : No

Audio #2
ID : 3
Format : AC-3
Format/Info : Audio Coding 3
Mode extension : CM (complete main)
Format settings, Endianness : Big
Codec ID : A_AC3
Duration : 1h 32mn
Bit rate mode : Constant
Bit rate : 384 Kbps
Channel(s) : 6 channels
Channel positions : Front: L C R, Side: L R, LFE
Sampling rate : 48.0 KHz
Compression mode : Lossy
Stream size : 254 MiB (6%)
Title : DD 5.1 @ 384 Kbps - MVO | Paradox |
Language : Russian
Default : No
Forced : No

Audio #3
ID : 4
Format : AC-3
Format/Info : Audio Coding 3
Mode extension : CM (complete main)
Format settings, Endianness : Big
Codec ID : A_AC3
Duration : 1h 32mn
Bit rate mode : Constant
Bit rate : 384 Kbps
Channel(s) : 6 channels
Channel positions : Front: L C R, Side: L R, LFE
Sampling rate : 48.0 KHz
Compression mode : Lossy
Stream size : 254 MiB (6%)
Title : DD 5.1 @ 384 Kbps - AVO | М.Яроцкий |
Language : Russian
Default : No
Forced : No

Text #1
ID : 5
Format : UTF-8
Codec ID : S_TEXT/UTF8
Codec ID/Info : UTF-8 Plain Text
Language : Russian
Default : No
Forced : No

Text #2
ID : 6
Format : UTF-8
Codec ID : S_TEXT/UTF8
Codec ID/Info : UTF-8 Plain Text
Language : English
Default : No
Forced : No

Menu
00:00:00.000 : en:00:00:00.000
00:06:08.658 : en:00:06:08.658
00:14:12.350 : en:00:14:12.350
00:23:21.816 : en:00:23:21.816
00:27:53.296 : en:00:27:53.296
00:33:44.814 : en:00:33:44.814
00:39:56.893 : en:00:39:56.893
00:45:03.532 : en:00:45:03.532
00:49:49.193 : en:00:49:49.193
00:56:36.391 : en:00:56:36.391
01:00:54.317 : en:01:00:54.317
01:05:01.105 : en:01:05:01.105
01:10:29.557 : en:01:10:29.557
01:16:24.787 : en:01:16:24.787
01:21:46.275 : en:01:21:46.275
01:25:39.257 : en:01:25:39.257








Скачать Шальная.карта.Wild.Card.(Саймон.Уэст).[2015.Боевик.триллер.драма.криминал.BDRip][1080p].[DUB.iTunes+MVO+AVO].[R.G.GoldenShara].torrent без регистрации
Золото ЗОЛОТАЯ РАЗДАЧА! СКАЧАННОЕ НЕ ЗАСЧИТЫВАЕТСЯ! Золото
Дата: Зарегистрирован   [ Тип: внутренний ] Как тут cкачать?
MAGNET ссылка
MAGNET ссылка


Скачать .torrent

11 KB

Статус: Τ временная раздача
Скачан: торрент - 90 раз, раздача полностью - 140 раз
Размер: 4,12 GB
Оценка:  4,9 (Голосов: 7)
Поблагодарили: 16
Поделиться ссылкой на эту раздачу с друзьями:
В контактеFacebookОдноклассникиTwitterLivejournalМой МирLiveinternet
 

 

raines

[] 

огромное спасибо!
 

Magnetto83

[] 

az Пожалуйста!!!! bs
 
Показать сообщения:    


Вы не можете начинать темы
Вы не можете отвечать на сообщения
Вы не можете редактировать свои сообщения
Вы не можете удалять свои сообщения
Вы не можете голосовать в опросах
Вы не можете прикреплять файлы к сообщениям
Вы можете скачивать файлы