Loading...
Error

Скачать Шанхайский сюрприз / Shanghai Surprise (Джим Годдар) [1986, драма, мелодрама, криминал, приключения, WEBRip] [1080p] [MVO]+[DVO]+[AVO]+[Eng]+[Sub Eng] торрент без регистрации

Статистика раздачи
Размер:  9,46 GB   |    Скачан:  9 раз
Сидов:  1  [  0 KB/s  ]  
 
 
 
Автор Сообщение

Marsianka

[] 

Информация о фильме
Название: Шанхайский сюрприз
Оригинальное название: Shanghai Surprise
Год выхода: 1986
Жанр: драма, мелодрама, криминал, приключения
Режиссер: Джим Годдар
В ролях: Шон Пенн, Мадонна, Пол Фримен, Ричард Гриффитс, Филип Сайер, Клайд Кусацу, Кэй Тонг Лим, Сонсерай Ли, Виктор Вонг, Профессор Тору Танака

О фильме:
Глория Тэтлок и Глендон Уэйси идут по опасной дорожке, ведущей к «Цветам Фарадея» — колоссальной партии ворованного опиума, потерянного в смертельных закоулках Шанхая 1938 года. Глория — невинная миссионерка, хочет найти опиум, чтобы облегчить страдания раненных на китайско-японской войне. Глендон, торговец и авантюрист, очень хочет убраться из Шанхая, пока еще цел. Для обоих опиум — билет к их цели, но беда в том, что все жулье города, включая зловещего шефа полиции и таинственную императрицу — «Китайскую куколку», хотят поучаствовать в деле…



Страна: Великобритания
Студия: HandMade Films, Vista Organisation
Продолжительность: 01:37:13
Перевод: Профессиональный (многоголосый, закадровый) R5 + Профессиональный (двухголосый, закадровый) ОРТ + Авторский (одноголосый, закадровый) А.Гаврилов

Файл
Качество: WEBRip 1080p
Формат: Matroska
Видео: 1920x1040 at 23.976 fps, MPEG4-AVC, ~12400 kbps avg
Аудио#1: Russian: 48 kHz, AC3, 3/2 (L,C,R,l,r) + LFE ch, ~384 kbps avg |Многоголосый закадровый, R5|
Аудио#2: Russian: 48 kHz, AC3, 2/0 (L,R) ch, ~192 kbps avg |Двухголосый закадровый, ОРТ|
Аудио#3: Russian: 48 kHz, AC3, 2/0 (L,R) ch, ~192 kbps avg |Авторский, А.Гаврилов|
Аудио#4: English: 48 kHz, AC3, 3/2 (L,C,R,l,r) + LFE ch, ~448 kbps avg
Субтитры: English
***Сборка, синхронизация звука - clom.
Шрифт Peignot™ во вступительных титрах был создан в 1937 году. Это тот же самый год, в котором разворачивается действие фильма.
Один из продюсеров фильма, Джон Кон, изначально видел Тома Хэнкса в главной мужской роли.
Общее
Уникальный идентификатор : 204882248876506190134599416593701567582 (0x9A22E2C4FFBE41A9B78CEB5847267C5E)
Полное имя : Shanghai.Surprise.1986.WEBRip.1080p.mkv
Формат : Matroska
Версия формата : Version 2
Размер файла : 9,46 Гбайт
Продолжительность : 1 ч. 37 м.
Режим общего битрейта : Переменный
Общий поток : 13,9 Мбит/сек
Дата кодирования : UTC 2017-07-16 11:06:30
Программа кодирования : mkvmerge v7.8.0 ('River Man') 32bit built on Apr 3 2015 12:11:22
Библиотека кодирования : libebml v1.3.1 + libmatroska v1.4.2

Видео
Идентификатор : 1
Формат : AVC
Формат/Информация : Advanced Video Codec
Профиль формата : High@L4.0
Параметр CABAC формата : Да
Параметр ReFrames формата : 4 кадра
Идентификатор кодека : V_MPEG4/ISO/AVC
Продолжительность : 1 ч. 37 м.
Вид битрейта : Переменный
Битрейт : 12,4 Мбит/сек
Максимальный битрейт : 15,0 Мбит/сек
Ширина : 1920 пикселей
Высота : 1040 пикселей
Соотношение сторон : 1,85:1
Режим частоты кадров : Постоянный
Частота кадров : 23,976 кадра/сек
Цветовое пространство : YUV
Субдискретизация насыщенности : 4:2:0
Битовая глубина : 8 бит
Тип развёртки : Прогрессивная
Бит/(Пиксели*Кадры) : 0.260
Размер потока : 8,44 Гбайт (89%)
Default : Да
Forced : Нет
Основные цвета : BT.709
Характеристики трансфера : BT.709
Коэффициенты матрицы : BT.709

Аудио #1
Идентификатор : 2
Формат : AC-3
Формат/Информация : Audio Coding 3
Расширение режима : CM (complete main)
Параметр Endianness формата : Big
Идентификатор кодека : A_AC3
Продолжительность : 1 ч. 37 м.
Вид битрейта : Постоянный
Битрейт : 384 Кбит/сек
Каналы : 6 каналов
Расположение каналов : Front: L C R, Side: L R, LFE
Частота : 48,0 КГц
Битовая глубина : 16 бит
Метод сжатия : С потерями
Размер потока : 267 Мбайт (3%)
Заголовок : ПМ (R5)
Язык : Russian
Default : Нет
Forced : Да

Аудио #2
Идентификатор : 3
Формат : AC-3
Формат/Информация : Audio Coding 3
Расширение режима : CM (complete main)
Параметр Endianness формата : Big
Идентификатор кодека : A_AC3
Продолжительность : 1 ч. 37 м.
Вид битрейта : Постоянный
Битрейт : 192 Кбит/сек
Каналы : 2 канала
Расположение каналов : Front: L R
Частота : 48,0 КГц
Битовая глубина : 16 бит
Метод сжатия : С потерями
Размер потока : 134 Мбайт (1%)
Заголовок : ПД (ОРТ)
Язык : Russian
Default : Нет
Forced : Да

Аудио #3
Идентификатор : 4
Формат : AC-3
Формат/Информация : Audio Coding 3
Расширение режима : CM (complete main)
Параметр Endianness формата : Big
Идентификатор кодека : A_AC3
Продолжительность : 1 ч. 37 м.
Вид битрейта : Постоянный
Битрейт : 192 Кбит/сек
Каналы : 2 канала
Расположение каналов : Front: L R
Частота : 48,0 КГц
Битовая глубина : 16 бит
Метод сжатия : С потерями
Размер потока : 134 Мбайт (1%)
Заголовок : АП (Гаврилов)
Язык : Russian
Default : Да
Forced : Да

Аудио #4
Идентификатор : 5
Формат : AC-3
Формат/Информация : Audio Coding 3
Расширение режима : CM (complete main)
Параметр Endianness формата : Big
Идентификатор кодека : A_AC3
Продолжительность : 1 ч. 37 м.
Вид битрейта : Постоянный
Битрейт : 448 Кбит/сек
Каналы : 6 каналов
Расположение каналов : Front: L C R, Side: L R, LFE
Частота : 48,0 КГц
Битовая глубина : 16 бит
Метод сжатия : С потерями
Размер потока : 312 Мбайт (3%)
Заголовок : Original
Язык : English
Default : Нет
Forced : Нет

Текст
Идентификатор : 6
Формат : UTF-8
Идентификатор кодека : S_TEXT/UTF8
Идентификатор кодека/Информация : UTF-8 Plain Text
Язык : English
Default : Нет
Forced : Нет




Скачать Шанхайский.сюрприз.Shanghai.Surprise.(Джим.Годдар).[1986.драма.мелодрама.криминал.приключения.WEBRip].[1080p].[MVO]+[DVO]+[AVO]+[Eng]+[Sub.Eng].torrent без регистрации
Золото ЗОЛОТАЯ РАЗДАЧА! СКАЧАННОЕ НЕ ЗАСЧИТЫВАЕТСЯ! Золото
Дата: Зарегистрирован   [ Тип: внутренний ] Как тут cкачать?
MAGNET ссылка
MAGNET ссылка


Скачать .torrent

48 KB

Статус: проверено DHT
Скачан: торрент - 9 раз, раздача полностью - 5 раз
Размер: 9,46 GB
Оценка:  5 (Голосов: 1)
Поблагодарили: 1
Поделиться ссылкой на эту раздачу с друзьями:
В контактеFacebookОдноклассникиTwitterLivejournalМой МирLiveinternet
 

 
Показать сообщения:    


Вы не можете начинать темы
Вы не можете отвечать на сообщения
Вы не можете редактировать свои сообщения
Вы не можете удалять свои сообщения
Вы не можете голосовать в опросах
Вы не можете прикреплять файлы к сообщениям
Вы можете скачивать файлы