Loading...
Error

Скачать Призрак в доспехах / Ghost in the Shell (Руперт Сандерс) [2017, Фантастика, боевик, триллер, драма, криминал, детектив, BDRip][1080p] [DUB Лицензия] [R.G. GoldenShara] торрент без регистрации

Статистика раздачи
Размер:  4,37 GB   |    Скачан:  630 раз
Сидов:  1  [  0 KB/s  ]  
 
 
 
Автор Сообщение

Magnetto83

[] 


Призрак в доспехах / Ghost in the Shell




Год выпуска: 2017
Страны: США, Индия, Китай, Япония, Гонконг, Великобритания, Новая Зеландия, Канада, Австралия
Студия: Arad Productions, DreamWorks, Grosvenor Park Productions
Жанр: Фантастика, боевик, триллер, драма, криминал, детектив
Продолжительность: 01:46:57
Перевод: Профессиональный (полное дублирование) | Blu-Ray CEE |
Субтитры: Русские (форс. + полные), украинские (форс. + полные), английские (Full)
Навигация по главам: Сохранены оригинальные главы как на Blu-ray

Слоган: «Ты — это не твое прошлое, а то, что ты делаешь»

Режиссер: Руперт Сандерс

В ролях: Скарлетт Йоханссон, Йохан Филип Асбек, Такеши Китано, Жюльетт Бинош, Майкл Питт, Чин Хань, Дануся Самал, Ласарус Ратуэре, Ютака Идзумихара, Таванда Маниймо

Описание: Кибер-технологии подчинили себе все сферы жизни, а самые опасные преступники переместились в виртуальное пространство. Киборг-гибрид, стоящий во главе элитного подразделения полиции, идет по следу могущественного хакера.



Возраст: 16+ (зрителям, достигшим 16 лет)
Рейтинг MPAA: PG-13 (детям до 13 лет просмотр нежелателен)

Качество: BDRip 1080p
Формат: MKV
Видео кодек: H.264
Аудио кодек: AC3
Видео: 1920x1080 (16:9), 5396 Кбит/с, 23.976 fps
Аудио: Русский Dolby Digital 5.1 (448 Кбит/с)


x264 [info]: frame I:1041 Avg QP:14.58 size:205081
x264 [info]: frame P:50377 Avg QP:18.36 size: 47142
x264 [info]: frame B:102429 Avg QP:19.90 size: 16997
x264 [info]: consecutive B-frames: 9.4% 3.1% 38.6% 12.8% 13.5% 19.0% 2.4% 0.5% 0.7%
x264 [total]: encoded 153847 frames, 1.39 fps, 5397.55 kb/s



General
Complete name : G:\Видео\Мои Рипы 1080p\Кино-Хиты 2017\Призрак в доспехах 2017 Dub Rus iTunes BDRip 1080p.mkv
Format : Matroska
Format version : Version 4 / Version 2
File size : 4.32 GiB
Duration : 1h 46mn
Overall bit rate : 5 784 Kbps
Movie name : Призрак в доспехах 2017 Dub Rus BDRip 1080p By R.G. GoldenShara
Encoded date : UTC 2017-07-20 15:05:25
Writing application : mkvmerge v7.8.0 ('River Man') 32bit built on Mar 27 2015 16:18:02
Writing library : libebml v1.3.1 + libmatroska v1.4.2
DURATION : 01:37:59.515000000
NUMBER_OF_FRAMES : 883
NUMBER_OF_BYTES : 28834
_STATISTICS_WRITING_APP : mkvmerge v7.8.0 ('River Man') 32bit built on Mar 27 2015 16:18:02
_STATISTICS_WRITING_DATE_UTC : 2017-07-20 15:05:25
_STATISTICS_TAGS : BPS DURATION NUMBER_OF_FRAMES NUMBER_OF_BYTES

Video
ID : 1
Format : AVC
Format/Info : Advanced Video Codec
Format profile : High@L4.1
Format settings, CABAC : Yes
Format settings, ReFrames : 4 frames
Codec ID : V_MPEG4/ISO/AVC
Duration : 1h 46mn
Bit rate : 5 396 Kbps
Width : 1 920 pixels
Height : 1 080 pixels
Display aspect ratio : 16:9
Frame rate mode : Constant
Frame rate : 23.976 fps
Color space : YUV
Chroma subsampling : 4:2:0
Bit depth : 8 bits
Scan type : Progressive
Bits/(Pixel*Frame) : 0.109
Stream size : 3.95 GiB (91%)
Title : Призрак в доспехах 2017 BDRip 1080p By Magnetto 83
Writing library : x264 core 146 r2538 121396c
Encoding settings : cabac=1 / ref=4 / deblock=1:-3:-3 / analyse=0x3:0x113 / me=umh / subme=11 / psy=1 / psy_rd=1.00:0.00 / mixed_ref=1 / me_range=32 / chroma_me=1 / trellis=2 / 8x8dct=1 / cqm=0 / deadzone=21,11 / fast_pskip=0 / chroma_qp_offset=-2 / threads=3 / lookahead_threads=1 / sliced_threads=0 / nr=0 / decimate=1 / interlaced=0 / bluray_compat=0 / constrained_intra=0 / bframes=8 / b_pyramid=2 / b_adapt=2 / b_bias=0 / direct=3 / weightb=1 / open_gop=0 / weightp=2 / keyint=250 / keyint_min=23 / scenecut=40 / intra_refresh=0 / rc=2pass / mbtree=0 / bitrate=5396 / ratetol=1.0 / qcomp=0.60 / qpmin=0 / qpmax=69 / qpstep=4 / cplxblur=20.0 / qblur=0.5 / ip_ratio=1.40 / pb_ratio=1.30 / aq=2:1.00
Language : English
Default : Yes
Forced : No

Audio
ID : 2
Format : AC-3
Format/Info : Audio Coding 3
Mode extension : CM (complete main)
Format settings, Endianness : Big
Codec ID : A_AC3
Duration : 1h 46mn
Bit rate mode : Constant
Bit rate : 384 Kbps
Channel(s) : 6 channels
Channel positions : Front: L C R, Side: L R, LFE
Sampling rate : 48.0 KHz
Compression mode : Lossy
Stream size : 294 MiB (7%)
Title : DD 5.1 @ 384 Kbps - Dub | BD CEE |
Language : Russian
Default : Yes
Forced : No

Text #1
ID : 3
Format : UTF-8
Codec ID : S_TEXT/UTF8
Codec ID/Info : UTF-8 Plain Text
Title : Форс.
Language : Russian
Default : Yes
Forced : No

Text #2
ID : 4
Format : UTF-8
Codec ID : S_TEXT/UTF8
Codec ID/Info : UTF-8 Plain Text
Title : Полные
Language : Russian
Default : No
Forced : No

Text #3
ID : 5
Format : UTF-8
Codec ID : S_TEXT/UTF8
Codec ID/Info : UTF-8 Plain Text
Title : Форс.
Language : Ukrainian
Default : No
Forced : No

Text #4
ID : 6
Format : UTF-8
Codec ID : S_TEXT/UTF8
Codec ID/Info : UTF-8 Plain Text
Title : Повні
Language : Ukrainian
Default : No
Forced : No

Text #5
ID : 7
Format : UTF-8
Codec ID : S_TEXT/UTF8
Codec ID/Info : UTF-8 Plain Text
Title : Full
Language : English
Default : No
Forced : No

Text #6
ID : 8
Format : UTF-8
Codec ID : S_TEXT/UTF8
Codec ID/Info : UTF-8 Plain Text
Title : SDH
Language : English
Default : No
Forced : No

Menu
00:00:00.000 : en:00:00:00.000
00:08:09.322 : en:00:08:09.322
00:14:39.962 : en:00:14:39.962
00:21:26.494 : en:00:21:26.494
00:28:02.681 : en:00:28:02.681
00:34:13.218 : en:00:34:13.218
00:39:27.615 : en:00:39:27.615
00:43:57.802 : en:00:43:57.802
00:51:49.815 : en:00:51:49.815
00:55:19.066 : en:00:55:19.066
01:01:06.872 : en:01:01:06.872
01:07:49.732 : en:01:07:49.732
01:14:36.972 : en:01:14:36.972
01:20:31.744 : en:01:20:31.744
01:27:46.178 : en:01:27:46.178
01:33:41.407 : en:01:33:41.407
01:38:00.083 : en:01:38:00.083







Скачать Призрак.в.доспехах.Ghost.in.the.Shell.(Руперт.Сандерс).[2017.Фантастика.боевик.триллер.драма.криминал.детектив.BDRip][1080p].[DUB.Лицензия].[R.G.GoldenShara].torrent без регистрации
Золото ЗОЛОТАЯ РАЗДАЧА! СКАЧАННОЕ НЕ ЗАСЧИТЫВАЕТСЯ! Золото
Дата: Зарегистрирован   [ Тип: внутренний ] Как тут cкачать?
MAGNET ссылка
MAGNET ссылка


Скачать .torrent

11 KB

Статус: проверено
Скачан: торрент - 630 раз, раздача полностью - 1267 раз
Размер: 4,37 GB
Оценка:  5 (Голосов: 13)
Поблагодарили: 33
Поделиться ссылкой на эту раздачу с друзьями:
В контактеFacebookОдноклассникиTwitterLivejournalМой МирLiveinternet
 

 

Magnetto83

[] 

ah Ребят, сори, раздача будет попозжее! ac Поспешил выложить с iTunes а тут лицуха приехала! bp Как то так! bk
 

dorga6

[] 

Спасибо! Фильм классный - рип ещё лучше!!!
 

Magnetto83

[] 

ah Большое спасибо, dorga6, за отзыв! az
 

Meth

[] 

Спасибо большое! теперь бы скачать как нибудь, ростелеком стабильно ломается раз в неделю ac ag
 

Kitaec1

[] 

Благодарю за рип, сам фильм еще не смотрел, отпишусь обязательно как посмотрю.
 

Magnetto83

[] 

az Пожалуйста! bs
 

SOULFLY061

[] 

Спасибо за фильм. Очень понравился.
 

Magnetto83

[] 

az Всегда пожалуйста!!! ad
 

oblivion83

[] 

Magnetto83
ay az
Братишь!!! Ты лучший!!!
 

Magnetto83

[] 

ah Спасибо! ab
 

7Жнец7

[] 

Опять нету BDRip 720p.
Сделай пожалуйста.
Заранее Спасибо!
 

Magnetto83

[] 

ab Уважаемый 7Жнец7, рипами 720p занимается другой релизёр в рубрике Релизы с разрешением 720p. А заказы фильмов можно сделать в рубрике Будущие релизы R.G. GoldenShara + Запросы пользователей. bw Я бы сделал с удовольствием Ваши заказы, но еле успеваю с 1080-ками! Сори! bk
 
Показать сообщения:    


Вы не можете начинать темы
Вы не можете отвечать на сообщения
Вы не можете редактировать свои сообщения
Вы не можете удалять свои сообщения
Вы не можете голосовать в опросах
Вы не можете прикреплять файлы к сообщениям
Вы можете скачивать файлы