Loading...
Error

Скачать Миднайт, Техас / Midnight, Texas (Сезон 01) (Дэвид Соломон, Майрзи Алмас, Грег Биман) [2017, фэнтези, драма, детектив, WEB-DL] [1080p] [MVO] (Newstudio) + [Orig] торрент без регистрации

Статистика раздачи
Размер:  33,56 GB   |    Скачан:  82 раза
Сидов:  1  [  0 KB/s  ]  
 
 
 
Автор Сообщение

leon030982

[] 

Миднайт, Техас / Midnight, Texas



Год выпуска: 2017
Страна: США
Жанр: фэнтези, драма, детектив
Продолжительность: 00:43:00
Перевод: Профессиональный (многоголосый закадровый) Newstudio
Субтитры: Английские

Режиссёр: Дэвид Соломон, Майрзи Алмас, Грег Биман / David Solomon, Mairzee Almas, Greg Beeman

В ролях: Франсуа Арно, Дилан Брюс, Ариэль Кеббел, Джейсон Льюис, Питер Менса, Сара Рамос, Юл Васкес, Джоэнн Кэмп, Париса Фитц-Хенли, Келли В. Лучио, Боб Джессер, Келли Стюарт, Джолин Бауман, Ив Козиловский, Шеннон Лоранс, Лора Каннингэм, Чаллен Кэйтс, Шон Дэннис, Роб Франко

Описание: События мистической драмы развернутся в маленьком техасском городке Миднайт, ставшем безопасным пристанищем для вампиров, ведьм, экстрасенсов, киллеров и всех прочих, кто отличается от обычных людей.



Перевод: Булат Карабасов


Качество: WEB-DL 1080p
Контейнер: MKV
Видео: MPEG-4 AVC, ~ 7504 Кбит/с, 1920x1080, 23.976 fps
Аудио 1: Russian, AC3, 48 kHz, 6 ch, 384 kbps
Аудио 2: English, EAC3, 48 kHz, 6 ch, 640 kbps
Субтитры: нет

Торент обновлен! добавлена 10-я серия
General
Unique ID : 225821188861770537245588502042268818702 (0xA9E394376AD44DAC9FF9513C055A5D0E)
Complete name : F:\Midnight, Texas - Миднайт, Техас. Сезон 1. NewStudio. 1080p\Midnight.Texas.s01e01.WEB-DL.1080p.NewStudio.mkv
Format : Matroska
Format version : Version 4 / Version 2
File size : 2.61 GiB
Duration : 42mn 59s
Overall bit rate mode : Variable
Overall bit rate : 8 702 Kbps
Movie name : Midnight, Texas s01e01 @ NNM-Club
Encoded date : UTC 2017-07-27 23:56:06
Writing application : mkvmerge v6.9.1 ('Blue Panther') 64bit built on Apr 18 2014 18:23:38
Writing library : libebml v1.3.0 + libmatroska v1.4.1

Video
ID : 1
Format : AVC
Format/Info : Advanced Video Codec
Format profile : High@L4
Format settings, CABAC : Yes
Format settings, ReFrames : 4 frames
Codec ID : V_MPEG4/ISO/AVC
Duration : 42mn 59s
Bit rate mode : Variable
Bit rate : 7 504 Kbps
Maximum bit rate : 15.0 Mbps
Width : 1 920 pixels
Height : 1 080 pixels
Display aspect ratio : 16:9
Frame rate mode : Constant
Frame rate : 23.976 fps
Color space : YUV
Chroma subsampling : 4:2:0
Bit depth : 8 bits
Scan type : Progressive
Bits/(Pixel*Frame) : 0.151
Stream size : 2.25 GiB (86%)
Language : English
Default : Yes
Forced : No
Color range : Limited
Color primaries : BT.709
Transfer characteristics : BT.709
Matrix coefficients : BT.709

Audio #1
ID : 2
Format : AC-3
Format/Info : Audio Coding 3
Mode extension : CM (complete main)
Format settings, Endianness : Big
Codec ID : A_AC3
Duration : 42mn 59s
Bit rate mode : Constant
Bit rate : 384 Kbps
Channel(s) : 6 channels
Channel positions : Front: L C R, Side: L R, LFE
Sampling rate : 48.0 KHz
Compression mode : Lossy
Stream size : 118 MiB (4%)
Language : Russian
Default : Yes
Forced : No

Audio #2
ID : 3
Format : E-AC-3
Format/Info : Audio Coding 3
Format settings, Endianness : Big
Codec ID : A_EAC3
Duration : 42mn 59s
Bit rate mode : Constant
Bit rate : 640 Kbps
Channel(s) : 6 channels
Channel positions : Front: L C R, Side: L R, LFE
Sampling rate : 48.0 KHz
Compression mode : Lossy
Stream size : 197 MiB (7%)
Language : English
Default : No
Forced : No

Text
ID : 4
Format : UTF-8
Codec ID : S_TEXT/UTF8
Codec ID/Info : UTF-8 Plain Text
Language : English
Default : No
Forced : No
Внимание! Раздача ведётся путём добавления новых серий; при каждом добавлении создаётся новый торрент. Чтобы начать докачку новой серии, пользователям необходимо сделать следующее:
(1) остановить скачивание,
(2) удалить старый торрент у себя из клиента (старые серии удалять не надо),
(3) скачать новый торрент и запустить его у себя в клиенте вместо старого, при этом указать клиенту путь в старую папку куда и должно происходить скачивание новых серий.

Ваш клиент при этом должен произвести хеширование (проверку) старой папки (если не производит сам - помогите ему сделать это), и будет докачивать только те серии которых у вас ещё нет. Старые серии при этом не удаляются, а продолжают раздаваться!

Eсли вы уже удалили старые серии, то предотвратить повторную закачку старых серий можно, отжав галочку в соответствующих местах при запуске нового торрента. По возможности, желательно не удалять старые серии как можно дольше чтобы релизёр не столько продолжал раздавать старые серии, а смог сконцентрироваться на новых.



Скачать Миднайт.Техас.Midnight.Texas.(Сезон.01).(Дэвид.Соломон.Майрзи.Алмас.Грег.Биман).[2017.фэнтези.драма.детектив.WEB-DL].[1080p].[MVO].(Newstudio).+.[Orig].torrent без регистрации
Золото ЗОЛОТАЯ РАЗДАЧА! СКАЧАННОЕ НЕ ЗАСЧИТЫВАЕТСЯ! Золото
Дата: Зарегистрирован   [ Тип: внутренний ] Как тут cкачать?
MAGNET ссылка
MAGNET ссылка


Скачать .torrent

86 KB

Статус: проверено DHT
Скачан: торрент - 82 раз, раздача полностью - 1 раз
Размер: 33,56 GB
Оценка:  - (Голосов: 0)
Поблагодарили: 2
Поделиться ссылкой на эту раздачу с друзьями:
В контактеFacebookОдноклассникиTwitterLivejournalМой МирLiveinternet
 

 
Показать сообщения:    


Вы не можете начинать темы
Вы не можете отвечать на сообщения
Вы не можете редактировать свои сообщения
Вы не можете удалять свои сообщения
Вы не можете голосовать в опросах
Вы не можете прикреплять файлы к сообщениям
Вы можете скачивать файлы