Loading...
Error

Скачать Невидимка / Hollow Man (Пол Верховен) [2000, фантастика, боевик, триллер, BDRip] [720p] [DUB] [Режиссерская] [R.G. GoldenShara] торрент без регистрации

Статистика раздачи
Размер:  3,49 GB   |    Скачан:  85 раз

Полного источника не было: 28 дней

 
 
 
Автор Сообщение

LORDKILL

[] 


Невидимка / Hollow Man


Год выпуска: 2000
Выпущено: США, Германия
Жанр: фантастика, боевик, триллер
Продолжительность: 01:59:15
Перевод: Профессиональный (полное дублирование)
Субтитры: русские, английские

Режиссер: Пол Верховен

В ролях: Элизабет Шу, Кевин Бейкон, Джош Бролин, Ким Диккенс, Грег Гранберг, Джои Слотник, Мэри Рэндл, Уильям Дивэйн, Рона Митра, Пабло Эспиноса .

Описание: Профессор Себастьян Кейн ищет формулу невидимости. Он уже научился делать невидимыми животных. Но эксперимент нельзя считать завершенным, пока не будет найдена формула «возврата» — невидимый объект должен снова обрести плоть и кровь.
После долгих поисков Кейн находит искомую формулу и успешно возвращает в мир реальных очертаний гориллу. Остается заключительный аккорд — совершить полный цикл на человеке. Как настоящий ученый, Кейн решает проделать это с самим собой…







Качество: BDRip 720p
Формат: MKV
Видео кодек: H.264
Аудио кодек: AC3
Видео: 1280x696 (1.85:1), 3739 kbps, 23.976 fps
Аудио: Русский (AC-3, 6ch, 448 kbps)

x264 [info]: frame I:1276 Avg QP:17.58 size:113502
x264 [info]: frame P:44379 Avg QP:18.94 size: 42129
x264 [info]: frame B:125897 Avg QP:22.01 size: 10562
x264 [info]: consecutive B-frames: 3.1% 6.6% 18.5% 18.7% 18.7% 30.5% 2.7% 0.6% 0.4%
x264 [total]: encoded 171552 frames, 4.00 fps, 3739.07 kb/s
General
Unique ID : 219612010703930781382581702011560858213 (0xA537BC18FB1F88C188FF03E4338F1265)
Complete name : F:\ФИЛЬМЫ\Невидимка.(Режиссерская).2000.x264.BDRip.720p.DUB.mkv
Format : Matroska
Format version : Version 4 / Version 2
File size : 3.49 GiB
Duration : 1 h 59 min
Overall bit rate : 4 189 kb/s
Movie name : Невидимка / Hollow Man (2000) (Режиссерская версия) - #LORDKILL#
Encoded date : UTC 2017-07-29 04:25:21
Writing application : mkvmerge v9.5.0 ('Quiet Fire') 64bit
Writing library : libebml v1.3.4 + libmatroska v1.4.5
Cover : Yes
Attachments : cover.jpg

Video
ID : 1
Format : AVC
Format/Info : Advanced Video Codec
Format profile : High@L4.1
Format settings, CABAC : Yes
Format settings, ReFrames : 9 frames
Codec ID : V_MPEG4/ISO/AVC
Duration : 1 h 59 min
Bit rate : 3 739 kb/s
Width : 1 280 pixels
Height : 696 pixels
Display aspect ratio : 1.85:1
Frame rate mode : Constant
Frame rate : 23.976 (24000/1001) FPS
Color space : YUV
Chroma subsampling : 4:2:0
Bit depth : 8 bits
Scan type : Progressive
Bits/(Pixel*Frame) : 0.175
Stream size : 3.11 GiB (89%)
Writing library : x264 core 146 r2538 121396c
Encoding settings : cabac=1 / ref=9 / deblock=1:-2:-2 / analyse=0x3:0x113 / me=umh / subme=11 / psy=1 / psy_rd=1.00:0.10 / mixed_ref=1 / me_range=64 / chroma_me=1 / trellis=2 / 8x8dct=1 / cqm=0 / deadzone=21,11 / fast_pskip=0 / chroma_qp_offset=-3 / threads=12 / lookahead_threads=2 / sliced_threads=0 / nr=0 / decimate=1 / interlaced=0 / bluray_compat=0 / constrained_intra=0 / bframes=8 / b_pyramid=2 / b_adapt=2 / b_bias=0 / direct=1 / weightb=1 / open_gop=0 / weightp=2 / keyint=240 / keyint_min=23 / scenecut=40 / intra_refresh=0 / rc=crf / mbtree=0 / crf=19.0 / qcomp=0.60 / qpmin=0 / qpmax=69 / qpstep=4 / ip_ratio=1.40 / pb_ratio=1.30 / aq=1:1.00
Language : English
Default : Yes
Forced : No

Audio
ID : 2
Format : AC-3
Format/Info : Audio Coding 3
Mode extension : CM (complete main)
Format settings, Endianness : Big
Codec ID : A_AC3
Duration : 1 h 59 min
Bit rate mode : Constant
Bit rate : 448 kb/s
Channel(s) : 6 channels
Channel positions : Front: L C R, Side: L R, LFE
Sampling rate : 48.0 kHz
Frame rate : 31.250 FPS (1536 spf)
Bit depth : 16 bits
Compression mode : Lossy
Stream size : 382 MiB (11%)
Title : Дубляж
Language : Russian
Default : Yes
Forced : No

Text #1
ID : 3
Format : UTF-8
Codec ID : S_TEXT/UTF8
Codec ID/Info : UTF-8 Plain Text
Duration : 1 h 50 min
Bit rate : 72 b/s
Count of elements : 1028
Stream size : 58.4 KiB (0%)
Title : v1
Language : Russian
Default : No
Forced : No

Text #2
ID : 4
Format : UTF-8
Codec ID : S_TEXT/UTF8
Codec ID/Info : UTF-8 Plain Text
Duration : 1 h 50 min
Bit rate : 67 b/s
Count of elements : 1088
Stream size : 54.7 KiB (0%)
Title : v2
Language : Russian
Default : No
Forced : No

Text #3
ID : 5
Format : UTF-8
Codec ID : S_TEXT/UTF8
Codec ID/Info : UTF-8 Plain Text
Duration : 1 h 48 min
Bit rate : 42 b/s
Count of elements : 1069
Stream size : 33.6 KiB (0%)
Language : English
Default : No
Forced : No

Text #4
ID : 6
Format : UTF-8
Codec ID : S_TEXT/UTF8
Codec ID/Info : UTF-8 Plain Text
Duration : 1 h 51 min
Bit rate : 50 b/s
Count of elements : 1649
Stream size : 41.1 KiB (0%)
Title : SDH
Language : English
Default : No
Forced : No

Menu
00:00:00.000 : en:Start
00:08:56.494 : en:"I Cracked the Reversion"
00:12:55.149 : en:Isabelle
00:22:41.068 : en:The Reversion
00:28:52.105 : en:Past Imperfect
00:36:02.243 : en:Committee Review
00:47:28.262 : en:Phase Iii Volunteer
00:50:47.627 : en:Superhero Joke
00:59:09.963 : en:Bio-Quantum Phase Shift
01:09:29.874 : en:Not Fade Away
01:12:29.970 : en:Sarah's Late Shift
01:23:45.979 : en:Reversion Failure
01:29:45.797 : en:Plastic Man
01:36:08.971 : en:Going Out
01:42:31.937 : en:Good-Neighbour Policy
01:46:36.473 : en:Sebastian Returns





Скачать Невидимка.Hollow.Man.(Пол.Верховен).[2000.фантастика.боевик.триллер.BDRip].[720p].[DUB].[Режиссерская].[R.G.GoldenShara].torrent без регистрации
Золото ЗОЛОТАЯ РАЗДАЧА! СКАЧАННОЕ НЕ ЗАСЧИТЫВАЕТСЯ! Золото
Дата: Зарегистрирован   [ Тип: внутренний ] Как тут cкачать?
MAGNET ссылка
MAGNET ссылка


Скачать .torrent

18 KB

Статус: проверено
Скачан: торрент - 85 раз, раздача полностью - 55 раз
Размер: 3,49 GB
Оценка:  5 (Голосов: 2)
Поблагодарили: 6
Поделиться ссылкой на эту раздачу с друзьями:
В контактеFacebookОдноклассникиTwitterLivejournalМой МирLiveinternet
 

 

asd-anane

[] 

Этого Невидимку раз 15 смотрел. Классный фильмец ay Спасибо bi
 

sobmaster

[] 

Да, хороший фильм!
 
Показать сообщения:    


Вы не можете начинать темы
Вы не можете отвечать на сообщения
Вы не можете редактировать свои сообщения
Вы не можете удалять свои сообщения
Вы не можете голосовать в опросах
Вы не можете прикреплять файлы к сообщениям
Вы можете скачивать файлы