Loading...
Error

Скачать Невероятная жизнь Уолтера Митти / The Secret Life of Walter Mitty (Бен Стиллер) [2013, Фэнтези, драма, комедия, приключения, семейный, BDRip][1080p] [DUB Лицензия] [R.G. GoldenShara] торрент без регистрации

Статистика раздачи
Размер:  4,37 GB   |    Скачан:  135 раз
Сидов:  1  [  0 KB/s  ]  
 
 
 
Автор Сообщение

Magnetto83

[] 


Невероятная жизнь Уолтера Митти / The Secret Life of Walter Mitty


Год выпуска: 2013
Выпущено: США / 20th Century Fox Film Corporation, Red House Entertainment, Truenorth Productions
Жанр: Фэнтези, драма, комедия, приключения, семейный
Продолжительность: 01:54:35
Перевод: Профессиональный (полное дублирование) | Blu-Ray CEE |
Субтитры: Русские (полные), украинские (повні), английские (Forced + Full + SDH + SDH-Colored)
Навигация по главам: Сохранены оригинальные главы как на Blu-ray

Слоган: «Перестань мечтать! Начни жить!»

Режиссер: Бен Стиллер

В ролях: Кристен Уиг, Бен Стиллер, Шон Пенн, Адам Скотт, Кэтрин Хан, Ширли МакЛейн, Пэттон Освальт, Джои Слотник, Тосико Онидзава, Адриан Мартинез

Описание: Новый взгляд на старый сюжет представляет фильм «Невероятная жизнь Уолтера Митти» (The Secret Life of Walter Mitty). Ремейк одноименной картины 1947 года, он знакомит нас с Уолтером Митти (Бен Стиллер), застенчивым человеком, который стоит на пороге больших перемен в своей жизни. Уолтер любит мечтать, и в этих своих фантазиях он, робкий и тихий, превращается в настоящего героя, а его жизнь полна приключений. Герой картины «Невероятная жизнь Уолтера Митти» и представить себе не может, что совсем скоро эти удивительные мечты совершенно неожиданным образом воплотятся в жизнь…



Возраст: 12+ (Зрителям, достигшим 12 лет)

Рейтинг MPAA: PG (Рекомендуется присутствие родителей)

Качество: BDRip 1080p
Формат: MKV
Видео кодек: H.264
Аудио кодек: AC3
Видео: 1920x800 (2.40:1), 4817 Кбит/с, 23.976 fps
Аудио: Русский Dolby Digital 5.1 (640 Кбит/с)


x264 [info]: frame I:1297 Avg QP:18.96 size:180280
x264 [info]: frame P:36600 Avg QP:21.63 size: 46140
x264 [info]: frame B:126936 Avg QP:23.65 size: 17435
x264 [info]: consecutive B-frames: 3.0% 2.6% 9.0% 16.5% 15.2% 43.3% 5.2% 2.2% 3.0%
x264 [total]: encoded 164833 frames, 1.32 fps, 4812.45 kb/s



General
Complete name : M:\Фильмы (Не удалять)\Мои Рипы (По Годам)\Кино Хиты 2013 1080p\Невероятная жизнь Уолтера Митти 2013 Dub Rus BDRip 1080p.mkv
Format : Matroska
Format version : Version 4 / Version 2
File size : 4.37 GiB
Duration : 1h 54mn
Overall bit rate : 5 455 Kbps
Movie name : Невероятная жизнь Уолтера Митти 2013 Dub Rus BDRip 1080p By R.G.GoldenShara
Encoded date : UTC 2017-07-31 13:14:51
Writing application : mkvmerge v7.8.0 ('River Man') 32bit built on Mar 27 2015 16:18:02
Writing library : libebml v1.3.1 + libmatroska v1.4.2
Attachements : Cover.jpg
DURATION : 01:53:48.278000000
NUMBER_OF_FRAMES : 1567
NUMBER_OF_BYTES : 60841
_STATISTICS_WRITING_APP : mkvmerge v7.8.0 ('River Man') 32bit built on Mar 27 2015 16:18:02
_STATISTICS_WRITING_DATE_UTC : 2017-07-31 13:14:51
_STATISTICS_TAGS : BPS DURATION NUMBER_OF_FRAMES NUMBER_OF_BYTES

Video
ID : 1
Format : AVC
Format/Info : Advanced Video Codec
Format profile : High@L4.1
Format settings, CABAC : Yes
Format settings, ReFrames : 5 frames
Codec ID : V_MPEG4/ISO/AVC
Duration : 1h 54mn
Bit rate : 4 817 Kbps
Width : 1 920 pixels
Height : 800 pixels
Display aspect ratio : 2.40:1
Frame rate mode : Constant
Frame rate : 23.976 fps
Color space : YUV
Chroma subsampling : 4:2:0
Bit depth : 8 bits
Scan type : Progressive
Bits/(Pixel*Frame) : 0.131
Stream size : 3.77 GiB (86%)
Title : Невероятная жизнь Уолтера Митти 2013 BDRip 1080p By Magnetto 83
Writing library : x264 core 146 r2538 121396c
Encoding settings : cabac=1 / ref=5 / deblock=1:-1:-1 / analyse=0x3:0x113 / me=umh / subme=10 / psy=1 / psy_rd=1.00:0.00 / mixed_ref=1 / me_range=32 / chroma_me=1 / trellis=2 / 8x8dct=1 / cqm=0 / deadzone=21,11 / fast_pskip=0 / chroma_qp_offset=-2 / threads=3 / lookahead_threads=1 / sliced_threads=0 / nr=0 / decimate=1 / interlaced=0 / bluray_compat=0 / constrained_intra=0 / bframes=8 / b_pyramid=2 / b_adapt=2 / b_bias=0 / direct=3 / weightb=1 / open_gop=0 / weightp=2 / keyint=250 / keyint_min=23 / scenecut=40 / intra_refresh=0 / rc=2pass / mbtree=0 / bitrate=4817 / ratetol=1.0 / qcomp=0.60 / qpmin=0 / qpmax=69 / qpstep=4 / cplxblur=20.0 / qblur=0.5 / ip_ratio=1.40 / pb_ratio=1.30 / aq=2:1.00
Language : English
Default : Yes
Forced : No

Audio
ID : 2
Format : AC-3
Format/Info : Audio Coding 3
Mode extension : CM (complete main)
Format settings, Endianness : Big
Codec ID : A_AC3
Duration : 1h 54mn
Bit rate mode : Constant
Bit rate : 640 Kbps
Channel(s) : 6 channels
Channel positions : Front: L C R, Side: L R, LFE
Sampling rate : 48.0 KHz
Compression mode : Lossy
Stream size : 525 MiB (12%)
Title : DD 5.1 @ 640 kbps - Дубляж | BD CEE |
Language : Russian
Default : Yes
Forced : No

Text #1
ID : 3
Format : UTF-8
Codec ID : S_TEXT/UTF8
Codec ID/Info : UTF-8 Plain Text
Title : Полные
Language : Russian
Default : No
Forced : No

Text #2
ID : 4
Format : UTF-8
Codec ID : S_TEXT/UTF8
Codec ID/Info : UTF-8 Plain Text
Title : Повні
Language : Ukrainian
Default : No
Forced : No

Text #3
ID : 5
Format : UTF-8
Codec ID : S_TEXT/UTF8
Codec ID/Info : UTF-8 Plain Text
Title : Forced
Language : English
Default : No
Forced : No

Text #4
ID : 6
Format : UTF-8
Codec ID : S_TEXT/UTF8
Codec ID/Info : UTF-8 Plain Text
Title : SDH-Colored
Language : English
Default : No
Forced : No

Text #5
ID : 7
Format : UTF-8
Codec ID : S_TEXT/UTF8
Codec ID/Info : UTF-8 Plain Text
Title : Full
Language : English
Default : No
Forced : No

Text #6
ID : 8
Format : UTF-8
Codec ID : S_TEXT/UTF8
Codec ID/Info : UTF-8 Plain Text
Title : SDH
Language : English
Default : No
Forced : No

Menu
00:02:51.004 : en:(01)00:02:51:004
00:05:39.756 : en:(02)00:05:39:756
00:08:33.971 : en:(03)00:08:33:971
00:10:54.570 : en:(04)00:10:54:570
00:13:52.248 : en:(05)00:13:52:248
00:17:48.233 : en:(06)00:17:48:233
00:20:39.655 : en:(07)00:20:39:655
00:23:33.245 : en:(08)00:23:33:245
00:26:31.381 : en:(09)00:26:31:381
00:30:08.264 : en:(10)00:30:08:264
00:32:19.520 : en:(11)00:32:19:520
00:35:01.057 : en:(12)00:35:01:057
00:38:18.838 : en:(13)00:38:18:838
00:40:31.846 : en:(14)00:40:31:846
00:44:51.480 : en:(15)00:44:51:480
00:48:13.891 : en:(16)00:48:13:891
00:51:29.669 : en:(17)00:51:29:669
00:54:36.273 : en:(18)00:54:36:273
00:57:28.403 : en:(19)00:57:28:403
01:00:02.140 : en:(20)01:00:02:140
01:03:10.620 : en:(21)01:03:10:620
01:05:28.382 : en:(22)01:05:28:382
01:09:27.288 : en:(23)01:09:27:288
01:11:23.028 : en:(24)01:11:23:028
01:14:06.650 : en:(25)01:14:06:650
01:18:31.748 : en:(26)01:18:31:748
01:22:50.882 : en:(27)01:22:50:882
01:28:52.535 : en:(28)01:28:52:535
01:30:24.460 : en:(29)01:30:24:460
01:33:54.670 : en:(30)01:33:54:670
01:35:39.483 : en:(31)01:35:39:483
01:38:24.356 : en:(32)01:38:24:356
01:39:48.273 : en:(33)01:39:48:273
01:43:01.675 : en:(34)01:43:01:675
01:44:28.262 : en:(35)01:44:28:262
01:54:34.659 : en:(36)01:54:34:659







Скачать Невероятная.жизнь.Уолтера.Митти.The.Secret.Life.of.Walter.Mitty.(Бен.Стиллер).[2013.Фэнтези.драма.комедия.приключения.семейный.BDRip][1080p].[DUB.Лицензия].[R.G.GoldenShara].torrent без регистрации
Золото ЗОЛОТАЯ РАЗДАЧА! СКАЧАННОЕ НЕ ЗАСЧИТЫВАЕТСЯ! Золото
Дата: Зарегистрирован   [ Тип: внутренний ] Как тут cкачать?
MAGNET ссылка
MAGNET ссылка


Скачать .torrent

11 KB

Статус: проверено
Скачан: торрент - 135 раз, раздача полностью - 268 раз
Размер: 4,37 GB
Оценка:  4 (Голосов: 4)
Поблагодарили: 7
Поделиться ссылкой на эту раздачу с друзьями:
В контактеFacebookОдноклассникиTwitterLivejournalМой МирLiveinternet
 

 

Kitaec1

[] 

Благодарю за проделанную работу. az
 

raines

[] 

Большое спасибо!
 

Magnetto83

[] 

az Пожалуйста, друзья! ab Приятного просмотра! ad
 
Показать сообщения:    


Вы не можете начинать темы
Вы не можете отвечать на сообщения
Вы не можете редактировать свои сообщения
Вы не можете удалять свои сообщения
Вы не можете голосовать в опросах
Вы не можете прикреплять файлы к сообщениям
Вы можете скачивать файлы