Loading...
Error

Скачать Президент Линкольн: Охотник на вампиров / Abraham Lincoln: Vampire Hunter (Тимур Бекмамбетов) [2012, ужасы, фэнтези, боевик, BDRip] [720p] [DUB] [R.G. GoldenShara] торрент без регистрации

Статистика раздачи
Размер:  2,52 GB   |    Скачан:  82 раза

Полного источника не было: 6 месяцев

 
 
 
Автор Сообщение

LORDKILL

[] 


Президент Линкольн: Охотник на вампиров / Abraham Lincoln: Vampire Hunter


Год выпуска: 2012
Выпущено: США
Жанр: ужасы, фэнтези, боевик
Продолжительность: 01:45:00
Перевод: Профессиональный (полное дублирование)
Субтитры: русские (форс., полные), английские

Режиссер: Тимур Бекмамбетов

В ролях: Бенджамин Уокер, Доминик Купер, Энтони Маки, Мэри Элизабет Уинстэд, Руфус Сьюэлл, МартонЧокаш, Джимми Симпсон, Джозеф Моул, Робин МакЛиви, Эрин Уоссон

Описание: Сюжет фильма раскрывает тайную жизнь Величайшего Президента Америки Авраама Линкольна любящего мужа и отца днем и беспощадного убийцу вампиров ночью. Армия кровопийц, которым он бросил вызов, растет с каждым днем. Сможет ли президент великой страны противостоять полчищам вампиров и спасти свою семью и народ от неминуемой гибели?..







Качество: BDRip 720p
Формат: MKV
Видео кодек: H.264
Аудио кодек: AC3
Видео: 1280x536 (2.40:1), 2790 kbps, 23.976 fps
Аудио: Русский (AC-3, 6ch, 640 kbps)

x264 [info]: frame I:1178 Avg QP:16.89 size:104717
x264 [info]: frame P:38283 Avg QP:18.33 size: 33908
x264 [info]: frame B:111602 Avg QP:21.93 size: 6950
x264 [info]: consecutive B-frames: 3.5% 4.8% 19.6% 15.6% 17.5% 32.1% 3.9% 1.5% 1.5%
x264 [total]: encoded 151063 frames, 4.83 fps, 2789.62 kb/s
General
Unique ID : 228154232744351796461064881094254241420 (0xABA4E82929D6F6A081C98B27973DA68C)
Complete name : F:\ФИЛЬМЫ\Президент.Линкольн-Охотник.на.вампиров.2012.x264.BDRip.720p.DUB.mkv
Format : Matroska
Format version : Version 4 / Version 2
File size : 2.52 GiB
Duration : 1 h 45 min
Overall bit rate : 3 432 kb/s
Movie name : Президент Линкольн: Охотник на вампиров / Abraham Lincoln: Vampire Hunter (2012) - #LORDKILL#
Encoded date : UTC 2017-08-03 18:41:25
Writing application : mkvmerge v9.5.0 ('Quiet Fire') 64bit
Writing library : libebml v1.3.4 + libmatroska v1.4.5

Video
ID : 1
Format : AVC
Format/Info : Advanced Video Codec
Format profile : High@L4.1
Format settings, CABAC : Yes
Format settings, ReFrames : 11 frames
Codec ID : V_MPEG4/ISO/AVC
Duration : 1 h 45 min
Bit rate : 2 790 kb/s
Width : 1 280 pixels
Height : 536 pixels
Display aspect ratio : 2.40:1
Frame rate mode : Constant
Frame rate : 23.976 (24000/1001) FPS
Color space : YUV
Chroma subsampling : 4:2:0
Bit depth : 8 bits
Scan type : Progressive
Bits/(Pixel*Frame) : 0.170
Stream size : 2.05 GiB (81%)
Writing library : x264 core 146 r2538 121396c
Encoding settings : cabac=1 / ref=11 / deblock=1:-3:-3 / analyse=0x3:0x113 / me=umh / subme=11 / psy=1 / psy_rd=1.00:0.10 / mixed_ref=1 / me_range=64 / chroma_me=1 / trellis=2 / 8x8dct=1 / cqm=0 / deadzone=21,11 / fast_pskip=0 / chroma_qp_offset=-3 / threads=12 / lookahead_threads=2 / sliced_threads=0 / nr=0 / decimate=1 / interlaced=0 / bluray_compat=0 / constrained_intra=0 / bframes=8 / b_pyramid=2 / b_adapt=2 / b_bias=0 / direct=1 / weightb=1 / open_gop=0 / weightp=2 / keyint=240 / keyint_min=23 / scenecut=40 / intra_refresh=0 / rc=crf / mbtree=0 / crf=19.5 / qcomp=0.60 / qpmin=0 / qpmax=69 / qpstep=4 / ip_ratio=1.40 / pb_ratio=1.30 / aq=1:1.00
Language : English
Default : Yes
Forced : No

Audio
ID : 2
Format : AC-3
Format/Info : Audio Coding 3
Mode extension : CM (complete main)
Format settings, Endianness : Big
Codec ID : A_AC3
Duration : 1 h 45 min
Bit rate mode : Constant
Bit rate : 640 kb/s
Channel(s) : 6 channels
Channel positions : Front: L C R, Side: L R, LFE
Sampling rate : 48.0 kHz
Frame rate : 31.250 FPS (1536 spf)
Bit depth : 16 bits
Compression mode : Lossy
Stream size : 481 MiB (19%)
Title : Дубляж
Language : Russian
Default : Yes
Forced : No

Text #1
ID : 3
Format : UTF-8
Codec ID : S_TEXT/UTF8
Codec ID/Info : UTF-8 Plain Text
Duration : 1 h 11 min
Bit rate : 0 b/s
Count of elements : 9
Stream size : 420 Bytes (0%)
Title : forced
Language : Russian
Default : Yes
Forced : Yes

Text #2
ID : 4
Format : UTF-8
Codec ID : S_TEXT/UTF8
Codec ID/Info : UTF-8 Plain Text
Duration : 1 h 37 min
Bit rate : 70 b/s
Count of elements : 904
Stream size : 50.5 KiB (0%)
Language : Russian
Default : No
Forced : No

Text #3
ID : 5
Format : UTF-8
Codec ID : S_TEXT/UTF8
Codec ID/Info : UTF-8 Plain Text
Duration : 1 h 37 min
Bit rate : 43 b/s
Count of elements : 1001
Stream size : 31.1 KiB (0%)
Language : English
Default : No
Forced : No

Menu
00:00:00.000 : :Chapter 01
00:03:48.478 : :Chapter 02
00:06:52.578 : :Chapter 03
00:11:06.457 : :Chapter 04
00:15:10.534 : :Chapter 05
00:20:07.789 : :Chapter 06
00:26:46.354 : :Chapter 07
00:29:22.135 : :Chapter 08
00:34:13.009 : :Chapter 09
00:39:04.884 : :Chapter 10
00:42:42.810 : :Chapter 11
00:47:25.467 : :Chapter 12
00:52:50.917 : :Chapter 13
01:00:39.302 : :Chapter 14
01:05:16.621 : :Chapter 15
01:10:33.562 : :Chapter 16
01:13:21.939 : :Chapter 17
01:16:41.555 : :Chapter 18
01:18:46.972 : :Chapter 19
01:22:41.373 : :Chapter 20
01:25:28.123 : :Chapter 21
01:29:00.835 : :Chapter 22
01:32:23.496 : :Chapter 23
01:37:55.119 : :Chapter 24
01:45:00.294 : :Chapter 25





Скачать Президент.Линкольн.Охотник.на.вампиров.Abraham.Lincoln.Vampire.Hunter.(Тимур.Бекмамбетов).[2012.ужасы.фэнтези.боевик.BDRip].[720p].[DUB].[R.G.GoldenShara].torrent без регистрации
Золото ЗОЛОТАЯ РАЗДАЧА! СКАЧАННОЕ НЕ ЗАСЧИТЫВАЕТСЯ! Золото
Дата: Зарегистрирован   [ Тип: внутренний ] Как тут cкачать?
MAGNET ссылка
MAGNET ссылка


Скачать .torrent

13 KB

Статус: проверено
Скачан: торрент - 82 раз, раздача полностью - 28 раз
Размер: 2,52 GB
Оценка:  5 (Голосов: 2)
Поблагодарили: 5
Поделиться ссылкой на эту раздачу с друзьями:
В контактеFacebookОдноклассникиTwitterLivejournalМой МирLiveinternet
 

 
Показать сообщения:    


Вы не можете начинать темы
Вы не можете отвечать на сообщения
Вы не можете редактировать свои сообщения
Вы не можете удалять свои сообщения
Вы не можете голосовать в опросах
Вы не можете прикреплять файлы к сообщениям
Вы можете скачивать файлы