Loading...
Error

Скачать Время псов / The Hunter's Prayer (Джонатан Мостоу) [2017, Боевик, триллер, криминал, драма, BDRip][1080p] [DUB iTunes] [R.G. GoldenShara] торрент без регистрации

Статистика раздачи
Размер:  4,2 GB   |    Скачан:  153 раза

Полного источника не было: 6 часов

 
 
 
Автор Сообщение

Magnetto83

[] 


Время псов / The Hunter's Prayer


Год выпуска: 2017
Страны: США, Испания, Германия
Студии: Apollo Media, FilmEngine, Full Clip Productions, HP Yorkshire Limited, Maple Leaf Films, Screen Yorkshire, Vandal Entertainment
Жанр: Боевик, триллер, криминал, драма
Продолжительность: 01:31:15
Перевод: Профессиональный (полное дублирование) | iTunes |
Субтитры: Английские (full+SHD)
Навигация по главам: Сохранены оригинальные главы как на Blu-ray

Слоган: «Это просто бизнес»

Режиссер: Джонатан Мостоу

В ролях: Сэм Уортингтон, Мартин Компстон, Одейя Раш, Вероника Эчеги, Аллен Лич, Эми Ландекер, Дин Джаггер III, Катя Бокор, Сэм Каллингворт

Описание: Бывший американский морпех Лукас переживает не лучшие времена — брошенный женой и лишённый возможности общаться с дочерью, он плотно сидит на наркотиках и выполняет заказные убийства для своего босса Ричарда Эдисона, известного британского магната и мецената, а по совместительству наркобарона. Очередной мишенью Лукаса становится студентка Элла — дочь бывшего бухгалтера Эдисона, нагревшего хозяина на энное количество миллионов фунтов, которую нужно убить для острастки остальным. Когда Лукас отказывается убить невинную девчушку, на поиски парочки устремляются целые полчища киллеров…



Возраст: 18+ (зрителям, достигшим 16 лет. запрещено для детей)
Рейтинг MPAA: R (лицам до 17 лет обязательно присутствие взрослого)

Качество: BDRip 1080p
Формат: MKV
Видео кодек: H.264
Аудио кодек: AC3
Видео: 1920x804 (2.40:1), 6208 Кбит/с, 23.976 fps
Аудио: Русский Dolby Digital 5.1 (384 Кбит/с)


264 [info]: frame I:1733 Avg QP:16.99 size:147196
x264 [info]: frame P:50316 Avg QP:20.19 size: 40424
x264 [info]: frame B:148383 Avg QP:22.30 size: 12929
x264 [info]: consecutive B-frames: 3.7% 4.9% 13.3% 23.0% 20.7% 26.4% 4.6% 1.4% 2.0%
x264 [total]: encoded 200432 frames, 0.92 fps, 4026.45 kb/s



General
Complete name : G:\Видео\Мои Рипы 1080p\Кино-Хиты 2017\Время псов 2017 Dub Rus iTunes BDRip 1080p.mkv
Format : Matroska
Format version : Version 4 / Version 2
File size : 4.20 GiB
Duration : 1h 31mn
Overall bit rate : 6 588 Kbps
Movie name : Время псов 2017 Dub Rus BDRip 1080p By R.G. GoldenShara
Encoded date : UTC 2017-08-02 19:08:40
Writing application : mkvmerge v7.0.0 ('Where We Going') 64bit built on Jun 9 2014 15:16:27
Writing library : libebml v1.3.0 + libmatroska v1.4.1
Attachements : Cover.jpg
DURATION : 01:23:55.004000000
NUMBER_OF_FRAMES : 1001
NUMBER_OF_BYTES : 24290
_STATISTICS_WRITING_APP : mkvmerge v7.0.0 ('Where We Going') 64bit built on Jun 9 2014 15:16:27
_STATISTICS_WRITING_DATE_UTC : 2017-08-02 19:08:40
_STATISTICS_TAGS : BPS DURATION NUMBER_OF_FRAMES NUMBER_OF_BYTES

Video
ID : 1
Format : AVC
Format/Info : Advanced Video Codec
Format profile : High@L4.1
Format settings, CABAC : Yes
Format settings, ReFrames : 5 frames
Codec ID : V_MPEG4/ISO/AVC
Duration : 1h 31mn
Bit rate : 6 208 Kbps
Width : 1 920 pixels
Height : 804 pixels
Display aspect ratio : 2.40:1
Frame rate mode : Constant
Frame rate : 23.976 fps
Color space : YUV
Chroma subsampling : 4:2:0
Bit depth : 8 bits
Scan type : Progressive
Bits/(Pixel*Frame) : 0.168
Stream size : 3.87 GiB (92%)
Title : Время псов 2017 BDRip 1080p By Magnetto83
Writing library : x264 core 146 r2538 121396c
Encoding settings : cabac=1 / ref=5 / deblock=1:-3:-3 / analyse=0x3:0x113 / me=umh / subme=11 / psy=1 / psy_rd=1.00:0.00 / mixed_ref=1 / me_range=32 / chroma_me=1 / trellis=2 / 8x8dct=1 / cqm=0 / deadzone=21,11 / fast_pskip=0 / chroma_qp_offset=-2 / threads=3 / lookahead_threads=1 / sliced_threads=0 / slices=7 / nr=0 / decimate=1 / interlaced=0 / bluray_compat=0 / constrained_intra=0 / bframes=8 / b_pyramid=2 / b_adapt=2 / b_bias=0 / direct=3 / weightb=1 / open_gop=0 / weightp=2 / keyint=250 / keyint_min=23 / scenecut=40 / intra_refresh=0 / rc=2pass / mbtree=0 / bitrate=6208 / ratetol=1.0 / qcomp=0.60 / qpmin=0 / qpmax=69 / qpstep=4 / cplxblur=20.0 / qblur=0.5 / ip_ratio=1.40 / pb_ratio=1.30 / aq=2:1.00
Language : English
Default : Yes
Forced : No

Audio
ID : 2
Format : AC-3
Format/Info : Audio Coding 3
Mode extension : CM (complete main)
Format settings, Endianness : Big
Codec ID : A_AC3
Duration : 1h 31mn
Bit rate mode : Constant
Bit rate : 384 Kbps
Channel(s) : 6 channels
Channel positions : Front: L C R, Side: L R, LFE
Sampling rate : 48.0 KHz
Compression mode : Lossy
Stream size : 251 MiB (6%)
Title : DD 5.1 @ 384 kbps - Dub | iTunes |
Language : Russian
Default : Yes
Forced : No
DURATION : 01:31:07.744000000
NUMBER_OF_FRAMES : 170867
NUMBER_OF_BYTES : 262451712
_STATISTICS_WRITING_APP : mkvmerge v7.0.0 ('Where We Going') 64bit built on Jun 9 2014 15:16:27
_STATISTICS_WRITING_DATE_UTC : 2017-08-02 19:08:40
_STATISTICS_TAGS : BPS DURATION NUMBER_OF_FRAMES NUMBER_OF_BYTES

Text #1
ID : 3
Format : UTF-8
Codec ID : S_TEXT/UTF8
Codec ID/Info : UTF-8 Plain Text
Title : Полные
Language : Russian
Default : No
Forced : No

Text #2
ID : 4
Format : UTF-8
Codec ID : S_TEXT/UTF8
Codec ID/Info : UTF-8 Plain Text
Title : SDH
Language : English
Default : No
Forced : No

Menu
00:00:00.000 : :(01)00:00:00:000
00:05:06.389 : :(02)00:05:06:389
00:11:49.542 : :(03)00:11:49:542
00:18:17.221 : :(04)00:18:17:221
00:24:50.113 : :(05)00:24:50:113
00:27:47.499 : :(06)00:27:47:499
00:34:19.681 : :(07)00:34:19:681
00:39:41.753 : :(08)00:39:41:753
00:45:37.192 : :(09)00:45:37:192
00:51:45.559 : :(10)00:51:45:559
00:57:32.114 : :(11)00:57:32:114
01:03:03.780 : :(12)01:03:03:780
01:09:21.407 : :(13)01:09:21:407
01:14:11.195 : :(14)01:14:11:195
01:20:17.479 : :(15)01:20:17:479
01:23:53.028 : :(16)01:23:53:028







Скачать Время.псов.The.Hunter's.Prayer.(Джонатан.Мостоу).[2017.Боевик.триллер.криминал.драма.BDRip][1080p].[DUB.iTunes].[R.G.GoldenShara].torrent без регистрации
Золото ЗОЛОТАЯ РАЗДАЧА! СКАЧАННОЕ НЕ ЗАСЧИТЫВАЕТСЯ! Золото
Дата: Зарегистрирован   [ Тип: внутренний ] Как тут cкачать?
MAGNET ссылка
MAGNET ссылка


Скачать .torrent

11 KB

Статус: Τ временная раздача
Скачан: торрент - 153 раз, раздача полностью - 174 раз
Размер: 4,2 GB
Оценка:  5 (Голосов: 4)
Поблагодарили: 10
Поделиться ссылкой на эту раздачу с друзьями:
В контактеFacebookОдноклассникиTwitterLivejournalМой МирLiveinternet
 

 

SOULFLY061

[] 

Дайте скорости :) Второй день никак не скачается.
 
Показать сообщения:    


Вы не можете начинать темы
Вы не можете отвечать на сообщения
Вы не можете редактировать свои сообщения
Вы не можете удалять свои сообщения
Вы не можете голосовать в опросах
Вы не можете прикреплять файлы к сообщениям
Вы можете скачивать файлы