Loading...
Error

Скачать Дочь моего босса / My Boss's Daughter (Дэвид Цукер) [2003 г., комедия, BDRip] [720p] [R-rated] [MVO, DUB] торрент без регистрации

Статистика раздачи
Размер:  4,08 GB   |    Скачан:  10 раз
Сидов:  1  [  0 KB/s  ]  

 
 
 
Автор Сообщение

durik

[] 

Дочь моего босса / My Boss's Daughter

Информация о фильме
Название: Дочь моего босса
Оригинальное название: My Boss's Daughter
Год выхода: 2003
Жанр: комедия
Режиссер: Дэвид Цукер
В ролях: Эштон Кутчер, Тара Рид, Теренс Стэмп, Молли Шеннон, Джон Абрахамс, Энди Рихтер, Тайлер Лабин, Майкл Мэдсен, Патрик Крэншо, Дэвид Кокнер

О фильме:
Строгий начальник просит своего безотказного молодого сотрудника присмотреть за его домом в течение одного вечера. Добросовестный парнишка вынужден согласиться, к тому же, ему очень нравится симпатичная дочка босса.
Но в эту сумасшедшую ночь улетает любимый филин босса, ради присмотра за которым в первую очередь был вызван герой, дом атакуют незваные гости, и, наконец, на огонек заглядывает некий злобный гангстер, превращая этот балаган в настоящий хаос…



Страна: США
Студия: Dimension Films
Продолжительность: 01:30:06
Перевод:
1. Профессиональный (многоголосый закадровый) R5
2. Дубляж (со вставками профессионального многоголосого перевода на места расширенной версии)

Файл
Кодек: AVC
Качество: BDRip 720p |BDRemux 1080p|
Видео: 1280x720, 5716 kbps, 23,976 fps, 0,259 Bits/(Pixel*Frame)
Звук:
1. AC3, 48 kHz, 6 ch, 384 kbps - MVO
2. AC3, 48 kHz, 6 ch, 384 kbps - DUB
3. AC3, 48 kHz, 6 ch, 448 kbps - Original (ENG)
Субтитры: русские, английские
Общее
Unique ID : 226060249670881500303165985702415414191 (0xAA119ED309AA21DB915B60B65F1FB3AF)
Complete name : E:\My.Boss.Daughter.2003.BDRip.720p.MegaPeer.mkv
Format : Matroska
Format version : Version 4 / Version 2
File size : 4,08 Гбайт
Duration : 1 ч. 30 м.
Overall bit rate : 6483 Кбит/сек
Encoded date : UTC 2017-08-12 08:14:58
Writing application : mkvmerge v14.0.0 ('Flow') 64bit
Writing library : libebml v1.3.4 + libmatroska v1.4.5

Видео
ID : 1
Format : AVC
Format/Info : Advanced Video Codec
Format profile : High@L4.1
Format settings, CABAC : Да
Format settings, RefFrames : 9 кадров
Codec ID : V_MPEG4/ISO/AVC
Duration : 1 ч. 30 м.
Bit rate : 5716 Кбит/сек
Width : 1280 пикселей
Height : 720 пикселей
Display aspect ratio : 16:9
Frame rate mode : Постоянный
Frame rate : 23,976 (24000/1001) кадра/сек
Color space : YUV
Chroma subsampling : 4:2:0
Bit depth : 8 бит
Scan type : Прогрессивная
Bits/(Pixel*Frame) : 0.259
Stream size : 3,60 Гбайт (88%)
Writing library : x264 core 152 r2851 ba24899
Encoding settings : cabac=1 / ref=9 / deblock=1:-1:-1 / analyse=0x3:0x113 / me=umh / subme=11 / psy=1 / psy_rd=1.00:0.00 / mixed_ref=1 / me_range=48 / chroma_me=1 / trellis=2 / 8x8dct=1 / cqm=0 / deadzone=21,11 / fast_pskip=0 / chroma_qp_offset=-2 / threads=12 / lookahead_threads=3 / sliced_threads=0 / nr=0 / decimate=0 / interlaced=0 / bluray_compat=0 / constrained_intra=0 / bframes=10 / b_pyramid=2 / b_adapt=2 / b_bias=0 / direct=3 / weightb=1 / open_gop=0 / weightp=2 / keyint=240 / keyint_min=23 / scenecut=0 / intra_refresh=0 / rc_lookahead=60 / rc=2pass / mbtree=1 / bitrate=5716 / ratetol=1.0 / qcomp=0.60 / qpmin=0 / qpmax=51 / qpstep=4 / cplxblur=15.0 / qblur=0.5 / vbv_maxrate=50000 / vbv_bufsize=62500 / nal_hrd=none / filler=0 / ip_ratio=1.40 / aq=1:0.90
Default : Да
Forced : Нет

Аудио #1
ID : 2
Format : AC-3
Format/Info : Audio Coding 3
Format settings, Endianness : Big
Codec ID : A_AC3
Duration : 1 ч. 30 м.
Bit rate mode : Постоянный
Bit rate : 384 Кбит/сек
Channel(s) : 6 каналов
Channel positions : Front: L C R, Side: L R, LFE
Sampling rate : 48,0 КГц
Frame rate : 31,250 кадров/сек (1536 SPF)
Bit depth : 16 бит
Compression mode : С потерями
Stream size : 248 Мбайт (6%)
Title : MVO
Language : Russian
Service kind : Complete Main
Default : Нет
Forced : Нет

Аудио #2
ID : 3
Format : AC-3
Format/Info : Audio Coding 3
Format settings, Endianness : Big
Codec ID : A_AC3
Duration : 1 ч. 29 м.
Bit rate mode : Постоянный
Bit rate : 384 Кбит/сек
Channel(s) : 6 каналов
Channel positions : Front: L C R, Side: L R, LFE
Sampling rate : 48,0 КГц
Frame rate : 31,250 кадров/сек (1536 SPF)
Bit depth : 16 бит
Compression mode : С потерями
Stream size : 247 Мбайт (6%)
Title : DUB
Language : Russian
Service kind : Complete Main
Default : Да
Forced : Да

Текст #1
ID : 4
Format : UTF-8
Codec ID : S_TEXT/UTF8
Codec ID/Info : UTF-8 Plain Text
Duration : 1 ч. 29 м.
Bit rate : 85 бит/сек
Count of elements : 1329
Stream size : 56,1 Кбайт (0%)
Language : English
Default : Нет
Forced : Нет

Текст #2
ID : 5
Format : UTF-8
Codec ID : S_TEXT/UTF8
Codec ID/Info : UTF-8 Plain Text
Duration : 1 ч. 29 м.
Bit rate : 121 бит/сек
Count of elements : 1178
Stream size : 79,7 Кбайт (0%)
Language : Russian
Default : Нет
Forced : Нет

Меню
00:00:00.000 : en:
00:04:03.243 : en:
00:11:18.636 : en:
00:16:10.970 : en:
00:28:01.680 : en:
00:32:47.924 : en:
00:38:10.288 : en:
00:43:22.600 : en:
00:48:35.746 : en:
00:53:35.546 : en:
01:00:15.070 : en:
01:07:01.017 : en:
01:12:28.344 : en:
01:16:50.856 : en:
01:19:25.719 : en:
Релиз:




Скачать Дочь.моего.босса.My.Boss's.Daughter.(Дэвид.Цукер).[2003.г.комедия.BDRip].[720p].[R-rated].[MVO.DUB].torrent без регистрации
Золото ЗОЛОТАЯ РАЗДАЧА! СКАЧАННОЕ НЕ ЗАСЧИТЫВАЕТСЯ! Золото
Дата: Зарегистрирован   [ Тип: внутренний ] Как тут cкачать?
MAGNET ссылка
MAGNET ссылка


Скачать .torrent

11 KB

Статус: * не проверено
Скачан: торрент - 10 раз, раздача полностью - 2 раз
Размер: 4,08 GB
Оценка:  - (Голосов: 0)
Поблагодарили: 0
Поделиться ссылкой на эту раздачу с друзьями:
В контактеFacebookОдноклассникиTwitterLivejournalМой МирLiveinternet
 

 
Показать сообщения:    


Вы не можете начинать темы
Вы не можете отвечать на сообщения
Вы не можете редактировать свои сообщения
Вы не можете удалять свои сообщения
Вы не можете голосовать в опросах
Вы не можете прикреплять файлы к сообщениям
Вы можете скачивать файлы