Loading...
Error

Скачать После тебя (Анна Матисон) [2016, драма, WEB-DL] [1080p] торрент без регистрации

Статистика раздачи
Размер:  3,95 GB   |    Скачан:  38 раз
Сидов:  61  [  62 KB/s  ]   Личеров:  3  [  0 KB/s  ]  

 
 
 
Автор Сообщение

Marsianka

[] 

Информация о фильме
Название: После тебя
Год выхода: 2016
Жанр: драма
Режиссер: Анна Матисон
В ролях: Сергей Безруков, Анастасия Безрукова, Алёна Бабенко, Карина Андоленко, Владимир Меньшов, Мария Смольникова, Тамара Акулова, Степан Куликов, Галина Бокашевская, Сергей Вершинин

О фильме:
«Чтобы сделать что-то, нужно или от рождения быть отчаянным, или чтобы обстоятельства стали отчаянными». Так думает Алексей Темников, поставленный жизнью в те самые отчаянные обстоятельства, когда важным остается лишь одно: «Что я оставлю после себя?» Вопрос, важный для любого мужчины, обострен до предела тем, что Темников — гениальный танцор, лишенный возможности танцевать. Травма, полученная на сцене 20 лет назад и прервавшая его карьеру, прогрессирует, и совсем скоро Темников не сможет ходить, что для него равносильно смерти. Помочь или просто поддержать Темникова никто не может, и не потому, что нет желающих, а потому, что он сам этого категорически не желает. Тяжелый характер и неоспоримый талант превратили его жизнь в тотальное одиночество.



Страна: Россия
Продолжительность: 01:55:12

Файл
Формат: MKV
Видео: 1920x806 at 25.000 fps, MPEG-4 AVC, ~4427 kbps avg
Aудио#1: Russian: 48 kHz, AC3, 3/2 (L,C,R,l,r) + LFE ch, ~384.00 kbps
Субтитры: нет
General
Unique ID : 182033343504897921477080615519197623719 (0x88F258C233F12A15A0D81C0FAD1C75A7)
Complete name : Posle.tebja.2016.WEB-DL.1080p.mkv
Format : Matroska
Format version : Version 4 / Version 2
File size : 3.95 GiB
Duration : 1 h 55 min
Overall bit rate : 4 909 kb/s
Encoded date : UTC 2017-04-15 17:22:51
Writing application : mkvmerge v6.1.0 ('Old Devil') built on Mar 2 2013 14:32:37
Writing library : libebml v1.3.0 + libmatroska v1.4.0

Video
ID : 1
Format : AVC
Format/Info : Advanced Video Codec
Format profile : High@L4
Format settings, CABAC : Yes
Format settings, RefFrames : 5 frames
Codec ID : V_MPEG4/ISO/AVC
Duration : 1 h 55 min
Bit rate : 4 427 kb/s
Width : 1 920 pixels
Height : 806 pixels
Display aspect ratio : 2.40:1
Frame rate mode : Constant
Frame rate : 25.000 FPS
Color space : YUV
Chroma subsampling : 4:2:0
Bit depth : 8 bits
Scan type : Progressive
Bits/(Pixel*Frame) : 0.114
Stream size : 3.56 GiB (90%)
Language : English
Default : Yes
Forced : No
Color range : Limited
Color primaries : BT.709
Transfer characteristics : BT.709
Matrix coefficients : BT.709
Statistics Tags Issue : mkvmerge v10.0.0 ('To Drown In You') 64bit 2017-04-15 14:31:45 / mkvmerge v6.1.0 ('Old Devil') built on Mar 2 2013 14:32:37 2017-04-15 17:22:51
FromStats_BitRate : 4523286
FromStats_Duration : 01:55:12.000000000
FromStats_FrameCount : 172800
FromStats_StreamSize : 3908119675

Audio
ID : 2
Format : AC-3
Format/Info : Audio Coding 3
Format settings, Endianness : Big
Codec ID : A_AC3
Duration : 1 h 55 min
Bit rate mode : Constant
Bit rate : 384 kb/s
Channel(s) : 6 channels
Channel positions : Front: L C R, Side: L R, LFE
Sampling rate : 48.0 kHz
Frame rate : 31.250 FPS (1536 SPF)
Bit depth : 16 bits
Compression mode : Lossy
Stream size : 316 MiB (8%)
Language : Russian
Service kind : Complete Main
Default : Yes
Forced : No
Statistics Tags Issue : mkvmerge v10.0.0 ('To Drown In You') 64bit 2017-04-15 14:31:45 / mkvmerge v6.1.0 ('Old Devil') built on Mar 2 2013 14:32:37 2017-04-15 17:22:51
FromStats_BitRate : 384000
FromStats_Duration : 01:55:12.032000000
FromStats_FrameCount : 216001
FromStats_StreamSize : 331777536

Menu
00:00:00.000 : en:Глава 1
00:03:57.080 : en:Глава 2
00:11:55.680 : en:Глава 3
00:17:03.720 : en:Глава 4
00:22:51.720 : en:Глава 5
00:27:41.440 : en:Глава 6
00:33:19.440 : en:Глава 7
00:38:21.960 : en:Глава 8
00:41:45.160 : en:Глава 9
00:47:07.800 : en:Глава 10
00:53:41.320 : en:Глава 11
00:59:03.120 : en:Глава 12
01:04:42.560 : en:Глава 13
01:11:35.240 : en:Глава 14
01:18:54.040 : en:Глава 15
01:25:57.480 : en:Глава 16
01:32:33.560 : en:Глава 17
01:39:38.280 : en:Глава 18
01:46:19.280 : en:Глава 19




Скачать После.тебя.(Анна.Матисон).[2016.драма.WEB-DL].[1080p].torrent без регистрации
Золото ЗОЛОТАЯ РАЗДАЧА! СКАЧАННОЕ НЕ ЗАСЧИТЫВАЕТСЯ! Золото
Дата: Зарегистрирован   [ Тип: внешний ] Как тут cкачать?
MAGNET ссылка
MAGNET ссылка


Скачать .torrent

21 KB

Статус: проверено DHT
Скачан: торрент - 38 раз, раздача полностью - 26 раз
Размер: 3,95 GB
Оценка:  - (Голосов: 0)
Поблагодарили: 4
Поделиться ссылкой на эту раздачу с друзьями:
В контактеFacebookОдноклассникиTwitterLivejournalМой МирLiveinternet
 

 
Показать сообщения:    


Вы не можете начинать темы
Вы не можете отвечать на сообщения
Вы не можете редактировать свои сообщения
Вы не можете удалять свои сообщения
Вы не можете голосовать в опросах
Вы не можете прикреплять файлы к сообщениям
Вы можете скачивать файлы