Loading...
Error

Скачать Пути и путы / Rails and Ties (Элисон Иствуд) [2007, драма, WEB-DL] [720p] [MVO (Пифагор)]+[Sub]x2 торрент без регистрации

Статистика раздачи
Размер:  3,33 GB   |    Скачан:  23 раза
Сидов:  1  [  0 KB/s  ]  

 
 
 
Автор Сообщение

Marsianka

[] 

Информация о фильме
Название: Пути и путы
Оригинальное название: Rails & Ties
Год выхода: 2007
Жанр: драма
Режиссер: Элисон Иствуд
В ролях: Кевин Бейкон, Марша Гей Харден, Майлс Хейзер, Марин Хинкль, Юджин Бирд, Бонни Рут, Стив Истин, Лаура Серон, Марго Мартиндейл, Кэтрин Джустен

О фильме:
Картина рассказывает о Томе Старке, машинисте поезда, столкнувшегося с оказавшейся на путях машиной. В результате инцидента женщина, сидевшая за рулем автомобиля, погибает, а ее уцелевший сын Дэйви во всем случившемся винит только машиниста. Том и его жена Меган решают усыновить сироту…



Страна: США
Продолжительность: 01:40:45
Перевод: Профессиональный (многоголосый закадровый) Пифагор

Файл
Формат: MKV
Видео: 1280x534 at 23.976 fps, MPEG-4 AVC, ~3872 kbps avg
Aудио#1: Russian: 48 kHz, AC3, 3/2 (L,C,R,l,r) + LFE ch, ~384.00 kbps avg
Aудио#2: English: 48 kHz, AC3, 3/2 (L,C,R,l,r) + LFE ch, ~384.00 kbps avg
Субтитры: русские, английские
GeneralUnique ID : 247774782849326283494993306962132236204 (0xBA67AFF7D4D3218A86ED52A962A877AC)
Complete name : Rails.and.Ties.2007.WEB-DL.720p.mkv
Format : Matroska
Format version : Version 4 / Version 2
File size : 3.33 GiB
Duration : 1 h 40 min
Overall bit rate : 4 734 kb/s
Encoded date : UTC 2016-04-19 04:24:57
Writing application : mkvmerge v6.1.0 ('Old Devil') built on Mar 2 2013 14:32:37
Writing library : libebml v1.3.0 + libmatroska v1.4.0

Video
ID : 1
Format : AVC
Format/Info : Advanced Video Codec
Format profile : Main@L3.1
Format settings, CABAC : No
Format settings, RefFrames : 2 frames
Format settings, GOP : N=1
Codec ID : V_MPEG4/ISO/AVC
Duration : 1 h 40 min
Bit rate : 3 872 kb/s
Width : 1 280 pixels
Height : 534 pixels
Display aspect ratio : 2.40:1
Frame rate mode : Constant
Frame rate : 23.976 FPS
Color space : YUV
Chroma subsampling : 4:2:0
Bit depth : 8 bits
Scan type : Progressive
Bits/(Pixel*Frame) : 0.236
Stream size : 2.73 GiB (82%)
Language : English
Default : Yes
Forced : No
Color range : Limited
Color primaries : BT.709
Transfer characteristics : BT.709
Matrix coefficients : BT.709

Audio #1
ID : 2
Format : AC-3
Format/Info : Audio Coding 3
Format settings, Endianness : Big
Codec ID : A_AC3
Duration : 1 h 40 min
Bit rate mode : Constant
Bit rate : 384 kb/s
Channel(s) : 6 channels
Channel positions : Front: L C R, Side: L R, LFE
Sampling rate : 48.0 kHz
Frame rate : 31.250 FPS (1536 SPF)
Bit depth : 16 bits
Compression mode : Lossy
Stream size : 277 MiB (8%)
Language : Russian
Service kind : Complete Main
Default : Yes
Forced : No

Audio #2
ID : 3
Format : AC-3
Format/Info : Audio Coding 3
Format settings, Endianness : Big
Codec ID : A_AC3
Duration : 1 h 40 min
Bit rate mode : Constant
Bit rate : 384 kb/s
Channel(s) : 6 channels
Channel positions : Front: L C R, Side: L R, LFE
Sampling rate : 48.0 kHz
Frame rate : 31.250 FPS (1536 SPF)
Bit depth : 16 bits
Compression mode : Lossy
Stream size : 277 MiB (8%)
Language : English
Service kind : Complete Main
Default : No
Forced : No

Text #1
ID : 4
Format : UTF-8
Codec ID : S_TEXT/UTF8
Codec ID/Info : UTF-8 Plain Text
Language : Russian
Default : No
Forced : No

Text #2
ID : 5
Format : UTF-8
Codec ID : S_TEXT/UTF8
Codec ID/Info : UTF-8 Plain Text
Language : English
Default : No
Forced : No

Menu
00:00:00.000 : en:Sad news.
00:04:56.000 : en:To make us happy.
00:09:12.000 : en:Brace for impact.
00:11:52.000 : en:Complicated situation.
00:17:00.000 : en:Dealing with death.
00:21:51.000 : en:Way things worked out.
00:25:01.000 : en:Runaway.
00:28:55.000 : en:Giving up.
00:36:37.000 : en:Please don't go.
00:39:34.000 : en:Let him stay.
00:43:28.000 : en:I had to know.
00:48:26.000 : en:Turnaround.
00:52:43.000 : en:It feels good.
00:55:38.000 : en:Threesome.
01:01:45.000 : en:Pretending.
01:04:40.000 : en:I forgive you.
01:10:44.000 : en:Gray area.
01:12:23.000 : en:Unwanted visitor.
01:17:25.000 : en:No regrets.
01:20:54.000 : en:The hearing.
01:23:33.000 : en:God's punishment.
01:27:52.000 : en:Final promise.
01:32:28.000 : en:In this together.
01:37:00.000 : en:End Credits.




Скачать Пути.и.путы.Rails.and.Ties.(Элисон.Иствуд).[2007.драма.WEB-DL].[720p].[MVO.(Пифагор)]+[Sub]x2.torrent без регистрации
Золото ЗОЛОТАЯ РАЗДАЧА! СКАЧАННОЕ НЕ ЗАСЧИТЫВАЕТСЯ! Золото
Дата: Зарегистрирован   [ Тип: внутренний ] Как тут cкачать?
MAGNET ссылка
MAGNET ссылка


Скачать .torrent

18 KB

Статус: проверено DHT
Скачан: торрент - 23 раз, раздача полностью - 0 раз
Размер: 3,33 GB
Оценка:  - (Голосов: 0)
Поблагодарили: 0
Поделиться ссылкой на эту раздачу с друзьями:
В контактеFacebookОдноклассникиTwitterLivejournalМой МирLiveinternet
 

 
Показать сообщения:    


Вы не можете начинать темы
Вы не можете отвечать на сообщения
Вы не можете редактировать свои сообщения
Вы не можете удалять свои сообщения
Вы не можете голосовать в опросах
Вы не можете прикреплять файлы к сообщениям
Вы можете скачивать файлы