Loading...
Error

Скачать Гоморра / Gomorra (Маттео Гарроне) [2008, криминальная драма, HDRip] [MVO (Н-Кино, R5)] торрент без регистрации

Статистика раздачи
Размер:  797 MB   |    Скачан:  16 раз
Сидов:  1  [  0 KB/s  ]  

 
 
 
Автор Сообщение

Marsianka

[] 

Информация о фильме
Название: Гоморра
Оригинальное название: Gomorra
Год выхода: 2008
Жанр: криминальная драма
Режиссер: Маттео Гарроне
В ролях: Сальваторе Абруццезе, Симоне Саккеттино, Сальваторе Руокко, Винченцо Фабричино, Винченцо Альтамура, Итало Ренда, Джанфеличе Импарато, Мария Национале, Сальваторе Стриано, Карло Дель Сорбо

О фильме: В фильме параллельно развиваются, ни разу не пересекаясь, несколько историй с героями разных поколений и разных сфер деятельности. Общее только одно: все они оказываются подчинены интересам преступного сообщества.
Пожилой держатель общака, который выплачивает субсидии родственникам отбывших на отсидку. Два великовозрастных оболтуса, окончательно теряющих голову, когда им удается разворошить тайник с оружием. Тринадцатилетний разносчик продуктов: ему приходится навсегда распрощаться с совестью, наведя бандитов на свою клиентку. Выпускник университета, которого втягивают в бизнес по захоронению токсичных отходов под крышей мафии. Талантливый портной, которого перекупают китайские конкуренты и который чуть не гибнет от мести клана.



Страна: Италия
Продолжительность: 02:17:24
Перевод: Профессиональный (многоголосый, закадровый) (Н-Кино, R5)
Субтитры: Нет

Файл
Кодек: XviD
Качество: HDRip
Видео: 640x272 (2.35:1), 23.976 fps, XviD build 73 ~673 kbps avg, 0.16 bit/pixel
Звук: 48 kHz, MPEG Layer 3, 2 ch, ~128.00 kbps avg
General
Complete name : Gomorra.2008.HDRip.ot.Portablius.avi
Format : AVI
Format/Info : Audio Video Interleave
File size : 797 MiB
Duration : 2 h 17 min
Overall bit rate : 811 kb/s
Writing application : VirtualDubMod 1.5.10.3 | www.virtualdub-fr.org || (build 2550/release)
Writing library : VirtualDubMod build 2550/release

Video
ID : 0
Format : MPEG-4 Visual
Format profile : Advanced Simple@L5
Format settings, BVOP : 1
Format settings, QPel : No
Format settings, GMC : No warppoints
Format settings, Matrix : Custom
Codec ID : XVID
Codec ID/Hint : XviD
Duration : 2 h 17 min
Bit rate : 674 kb/s
Width : 640 pixels
Height : 272 pixels
Display aspect ratio : 2.35:1
Frame rate : 23.976 (24000/1001) FPS
Original frame rate : 23.976 (23976/1000) FPS
Color space : YUV
Chroma subsampling : 4:2:0
Bit depth : 8 bits
Scan type : Progressive
Compression mode : Lossy
Bits/(Pixel*Frame) : 0.161
Stream size : 662 MiB (83%)
Writing library : XviD 73

Audio
ID : 1
Format : MPEG Audio
Format version : Version 1
Format profile : Layer 3
Codec ID : 55
Codec ID/Hint : MP3
Duration : 2 h 17 min
Bit rate mode : Constant
Bit rate : 128 kb/s
Channel(s) : 2 channels
Sampling rate : 48.0 kHz
Compression mode : Lossy
Stream size : 126 MiB (16%)
Alignment : Aligned on interleaves
Interleave, duration : 42 ms (1.00 video frame)
Interleave, preload duratio : 504 ms
Writing library : LAME3.99r
Encoding settings : -m s -V 4 -q 2 -lowpass 17 -b 128




Скачать Гоморра.Gomorra.(Маттео.Гарроне).[2008.криминальная.драма.HDRip].[MVO.(Н-Кино.R5)].torrent без регистрации
Золото ЗОЛОТАЯ РАЗДАЧА! СКАЧАННОЕ НЕ ЗАСЧИТЫВАЕТСЯ! Золото
Дата: Зарегистрирован   [ Тип: внутренний ] Как тут cкачать?
MAGNET ссылка
MAGNET ссылка


Скачать .torrent

16 KB

Статус: проверено DHT
Скачан: торрент - 16 раз, раздача полностью - 4 раз
Размер: 797 MB
Оценка:  - (Голосов: 0)
Поблагодарили: 0
Поделиться ссылкой на эту раздачу с друзьями:
В контактеFacebookОдноклассникиTwitterLivejournalМой МирLiveinternet
 

 
Показать сообщения:    


Вы не можете начинать темы
Вы не можете отвечать на сообщения
Вы не можете редактировать свои сообщения
Вы не можете удалять свои сообщения
Вы не можете голосовать в опросах
Вы не можете прикреплять файлы к сообщениям
Вы можете скачивать файлы