Loading...
Error

Скачать Эксперимент «Офис» / The Belko Experiment (Грег МакЛин) [2016 г., ужасы, боевик, триллер, BDRip-AVC] [AVO (Яроцкий)] торрент без регистрации

Статистика раздачи
Размер:  2,18 GB   |    Скачан:  21 раз
Сидов:  2  [  2 KB/s  ]  

 
 
 
Автор Сообщение

durik

[] 

Эксперимент «Офис» / The Belko Experiment

Информация о фильме
Название: Эксперимент «Офис»
Оригинальное название: The Belko Experiment
Год выхода: 2016
Жанр: ужасы, боевик, триллер
Режиссер: Грег МакЛин
В ролях: Джон Галлахер мл., Тони Голдуин, Адриа Архона, Джон К. МакГинли, Мелони Диас, Овайн Йомэн, Шон Ганн, Брент Секстон, Джош Бренер, Давид Дастмалчян

О фильме:
80 сотрудников международной корпорации заблокированы в многоэтажном офисном здании. По внутренней связи компании неизвестный голос призывает их участвовать в смертельной игре на выживание. Они должны будут выполнить ряд изощренных заданий, первое из которых — убить коллег, вызывающих наибольшее раздражение. Иначе устроители эксперимента пустят в расход всех. Игра началась!



Страна: США, Колумбия
Студия: BH Tilt, Blumhouse Productions, Itaca Films
Продолжительность: 01:28:45
Перевод: Авторский (одноголосый, закадровый) М.Яроцкий

Файл
Кодек: AVC
Качество: BDRip-AVC |BDRemux 1080p|
Видео: 1056x440, 2619 kbps, 23,976 fps, 0,235 Bits/(Pixel*Frame)
Звук:
1.AC3, 48 kHz, 6 ch, 448 kbps - RUS AVO
2.AC3, 48 kHz, 6 ch, 448 kbps - Original ENG
Субтитры: русские, английские, английские SDH
Общее
Unique ID : 181032741369121049703748351402547883430 (0x8831A343B2876242BF71DA91C5442DA6)
Complete name : D:\The.Belko.Experiment.2016.BDRip-AVC.Rus.Eng.MegaPeer.mkv
Format : Matroska
Format version : Version 4 / Version 2
File size : 2,18 Гбайт
Duration : 1 ч. 28 м.
Overall bit rate : 3512 Кбит/сек
Encoded date : UTC 2017-08-13 08:18:45
Writing application : mkvmerge v14.0.0 ('Flow') 64bit
Writing library : libebml v1.3.4 + libmatroska v1.4.5

Видео
ID : 1
Format : AVC
Format/Info : Advanced Video Codec
Format profile : High@L4.1
Format settings, CABAC : Да
Format settings, RefFrames : 11 кадров
Codec ID : V_MPEG4/ISO/AVC
Duration : 1 ч. 28 м.
Bit rate : 2619 Кбит/сек
Width : 1056 пикселей
Height : 440 пикселей
Display aspect ratio : 2,40:1
Frame rate mode : Постоянный
Frame rate : 23,976 (24000/1001) кадра/сек
Color space : YUV
Chroma subsampling : 4:2:0
Bit depth : 8 бит
Scan type : Прогрессивная
Bits/(Pixel*Frame) : 0.235
Stream size : 1,62 Гбайт (74%)
Writing library : x264 core 152 r2851 ba24899
Encoding settings : cabac=1 / ref=11 / deblock=1:-3:-3 / analyse=0x3:0x113 / me=umh / subme=11 / psy=1 / psy_rd=1.00:0.05 / mixed_ref=1 / me_range=48 / chroma_me=1 / trellis=2 / 8x8dct=1 / cqm=0 / deadzone=21,11 / fast_pskip=0 / chroma_qp_offset=-3 / threads=12 / lookahead_threads=3 / sliced_threads=0 / nr=0 / decimate=0 / interlaced=0 / bluray_compat=0 / constrained_intra=0 / bframes=14 / b_pyramid=2 / b_adapt=2 / b_bias=0 / direct=3 / weightb=1 / open_gop=0 / weightp=2 / keyint=240 / keyint_min=23 / scenecut=0 / intra_refresh=0 / rc_lookahead=60 / rc=2pass / mbtree=1 / bitrate=2619 / ratetol=1.0 / qcomp=0.60 / qpmin=0 / qpmax=51 / qpstep=4 / cplxblur=15.0 / qblur=0.5 / vbv_maxrate=50000 / vbv_bufsize=62500 / nal_hrd=none / filler=0 / ip_ratio=1.40 / aq=2:0.80
Default : Да
Forced : Нет

Аудио #1
ID : 2
Format : AC-3
Format/Info : Audio Coding 3
Format settings, Endianness : Big
Codec ID : A_AC3
Duration : 1 ч. 28 м.
Bit rate mode : Постоянный
Bit rate : 448 Кбит/сек
Channel(s) : 6 каналов
Channel positions : Front: L C R, Side: L R, LFE
Sampling rate : 48,0 КГц
Frame rate : 31,250 кадров/сек (1536 SPF)
Bit depth : 16 бит
Compression mode : С потерями
Stream size : 284 Мбайт (13%)
Language : Russian
Service kind : Complete Main
Default : Да
Forced : Нет

Аудио #2
ID : 3
Format : AC-3
Format/Info : Audio Coding 3
Format settings, Endianness : Big
Codec ID : A_AC3
Duration : 1 ч. 28 м.
Bit rate mode : Постоянный
Bit rate : 448 Кбит/сек
Channel(s) : 6 каналов
Channel positions : Front: L C R, Side: L R, LFE
Sampling rate : 48,0 КГц
Frame rate : 31,250 кадров/сек (1536 SPF)
Bit depth : 16 бит
Compression mode : С потерями
Stream size : 284 Мбайт (13%)
Language : English
Service kind : Complete Main
Default : Нет
Forced : Нет

Текст #1
ID : 4
Format : UTF-8
Codec ID : S_TEXT/UTF8
Codec ID/Info : UTF-8 Plain Text
Duration : 1 ч. 23 м.
Bit rate : 79 бит/сек
Count of elements : 1109
Stream size : 48,4 Кбайт (0%)
Language : Russian
Default : Нет
Forced : Нет

Текст #2
ID : 5
Format : UTF-8
Codec ID : S_TEXT/UTF8
Codec ID/Info : UTF-8 Plain Text
Duration : 1 ч. 23 м.
Bit rate : 51 бит/сек
Count of elements : 1124
Stream size : 31,3 Кбайт (0%)
Language : English
Default : Нет
Forced : Нет

Текст #3
ID : 6
Format : UTF-8
Codec ID : S_TEXT/UTF8
Codec ID/Info : UTF-8 Plain Text
Duration : 1 ч. 23 м.
Bit rate : 58 бит/сек
Count of elements : 1341
Stream size : 35,9 Кбайт (0%)
Title : SDH
Language : English
Default : Нет
Forced : Нет

Текст #4
ID : 7
Format : UTF-8
Codec ID : S_TEXT/UTF8
Codec ID/Info : UTF-8 Plain Text
Duration : 1 ч. 25 м.
Bit rate : 77 бит/сек
Count of elements : 1343
Stream size : 48,9 Кбайт (0%)
Title : SDH Colored
Language : English
Default : Нет
Forced : Нет

Меню
00:00:00.000 : en:Chapter 01
00:02:39.993 : en:Chapter 02
00:05:18.943 : en:Chapter 03
00:09:21.018 : en:Chapter 04
00:11:17.885 : en:Chapter 05
00:14:06.095 : en:Chapter 06
00:16:29.905 : en:Chapter 07
00:19:13.735 : en:Chapter 08
00:22:43.528 : en:Chapter 09
00:24:48.320 : en:Chapter 10
00:28:11.564 : en:Chapter 11
00:30:31.996 : en:Chapter 12
00:33:47.442 : en:Chapter 13
00:37:12.313 : en:Chapter 14
00:41:57.056 : en:Chapter 15
00:44:22.117 : en:Chapter 16
00:47:42.025 : en:Chapter 17
00:50:24.229 : en:Chapter 18
00:53:04.723 : en:Chapter 19
00:56:46.444 : en:Chapter 20
01:00:59.238 : en:Chapter 21
01:03:07.074 : en:Chapter 22
01:04:40.793 : en:Chapter 23
01:08:04.663 : en:Chapter 24
01:10:40.945 : en:Chapter 25
01:15:19.556 : en:Chapter 26
01:19:18.420 : en:Chapter 27
01:24:33.651 : en:Chapter 28
Релиз:




Скачать Эксперимент.«Офис».The.Belko.Experiment.(Грег.МакЛин).[2016.г.ужасы.боевик.триллер.BDRip-AVC].[AVO.(Яроцкий)].torrent без регистрации
Золото ЗОЛОТАЯ РАЗДАЧА! СКАЧАННОЕ НЕ ЗАСЧИТЫВАЕТСЯ! Золото
Дата: Зарегистрирован   [ Тип: внутренний ] Как тут cкачать?
MAGNET ссылка
MAGNET ссылка


Скачать .torrent

11 KB

Статус: * не проверено
Скачан: торрент - 21 раз, раздача полностью - 11 раз
Размер: 2,18 GB
Оценка:  - (Голосов: 0)
Поблагодарили: 4
Поделиться ссылкой на эту раздачу с друзьями:
В контактеFacebookОдноклассникиTwitterLivejournalМой МирLiveinternet
 

 
Показать сообщения:    


Вы не можете начинать темы
Вы не можете отвечать на сообщения
Вы не можете редактировать свои сообщения
Вы не можете удалять свои сообщения
Вы не можете голосовать в опросах
Вы не можете прикреплять файлы к сообщениям
Вы можете скачивать файлы