Loading...
Error

Скачать Ночные стражи (Эмилис Веливис) [2016, Фэнтези, боевик, BDRip] [720p] [R.G. GoldenShara] торрент без регистрации

Статистика раздачи
Размер:  2,72 GB   |    Скачан:  72 раза

Полного источника не было: 1 день 14 часов

 
 
 
Автор Сообщение

LORDKILL

[] 


Ночные стражи


Год выпуска: 2016
Выпущено: Россия
Жанр: Фэнтези, боевик
Продолжительность: 01:41:02
Перевод: Не требуется

Режиссер: Эмилис Веливис

В ролях: Иван Янковский, Любовь Аксёнова, Леонид Ярмольник, Михаил Евланов, Сабина Ахмедова, Константин Адаев, Юрий Ваксман, Алексей Дмитриев, Денис Бузин, Евгений Косырев

Описание: Вводные данные: А — популярная молодежная певица и по совместительству вампирья принцесса Дана, прекрасная как лунный свет и опасная как сталь серебряного кинжала. И Б — простой парень Паша, работающий курьером в фирме экспресс-доставки с поэтическим названием «Крылья Москвы». Что будет, если однажды дороги этих двух совершенно несовместимых составляющих пересекутся? А будет большое приключение с интересными знакомствами, путешествиями по неизведанным местам нашей столицы и неожиданным исходом.

Главный герой спасает от беды красавицу, получает ее любовь, а вместе с ней большие неприятности, с которыми разбираться ему будет помогать его Наставник, майор полиции из специального отдела по имени Гамаюн. Наставник ему попался крутой до невозможности. То есть он круто появляется, круто ходит, круто носит черные очки и у него крутая пушка. Еще он быстро и круто распыляет в лицо памятьотшибен, который сам любовно собирает и готовит. И разъезжает на скоростном вагоне метро, оборудованном по последнему слову техники.







Качество: BDRip 720p
Формат: MKV
Видео кодек: H.264
Аудио кодек: AC3
Видео: 1280x536 (2.40:1), 3026 kbps, 23.976 fps
Аудио: Русский (AC-3, 6ch, 640 kbps)

x264 [info]: frame I:1410 Avg QP:17.44 size:110368
x264 [info]: frame P:34766 Avg QP:18.88 size: 39097
x264 [info]: frame B:109159 Avg QP:21.98 size: 8376
x264 [info]: consecutive B-frames: 3.4% 4.4% 14.0% 14.5% 20.6% 33.4% 6.3% 1.2% 2.1%
x264 [total]: encoded 145335 frames, 5.05 fps, 3205.95 kb/s
General
Unique ID : 203016036089955041240191920807077245363 (0x98BB776011A0959F90134AF7E33871B3)
Complete name : F:\ФИЛЬМЫ\РУССКИЕ ФИЛЬМЫ\Ночные стражи.2016.x264.BDRip.720p.mkv
Format : Matroska
Format version : Version 4 / Version 2
File size : 2.72 GiB
Duration : 1 h 41 min
Overall bit rate : 3 848 kb/s
Movie name : Ночные стражи (2016) - #LORDKILL#
Encoded date : UTC 2017-08-13 14:54:42
Writing application : mkvmerge v9.5.0 ('Quiet Fire') 64bit
Writing library : libebml v1.3.4 + libmatroska v1.4.5
Cover : Yes
Attachments : Cover - Nochnye.Strazhi.png

Video
ID : 1
Format : AVC
Format/Info : Advanced Video Codec
Format profile : High@L4.1
Format settings, CABAC : Yes
Format settings, ReFrames : 11 frames
Codec ID : V_MPEG4/ISO/AVC
Duration : 1 h 41 min
Bit rate : 3 206 kb/s
Width : 1 280 pixels
Height : 536 pixels
Display aspect ratio : 2.40:1
Frame rate mode : Constant
Frame rate : 23.976 (24000/1001) FPS
Color space : YUV
Chroma subsampling : 4:2:0
Bit depth : 8 bits
Scan type : Progressive
Bits/(Pixel*Frame) : 0.195
Stream size : 2.26 GiB (83%)
Writing library : x264 core 146 r2538 121396c
Encoding settings : cabac=1 / ref=11 / deblock=1:-3:-3 / analyse=0x3:0x113 / me=umh / subme=11 / psy=1 / psy_rd=1.00:0.10 / mixed_ref=1 / me_range=64 / chroma_me=1 / trellis=2 / 8x8dct=1 / cqm=0 / deadzone=21,11 / fast_pskip=0 / chroma_qp_offset=-3 / threads=12 / lookahead_threads=2 / sliced_threads=0 / nr=0 / decimate=1 / interlaced=0 / bluray_compat=0 / constrained_intra=0 / bframes=8 / b_pyramid=2 / b_adapt=2 / b_bias=0 / direct=1 / weightb=1 / open_gop=0 / weightp=2 / keyint=240 / keyint_min=23 / scenecut=40 / intra_refresh=0 / rc=crf / mbtree=0 / crf=19.5 / qcomp=0.60 / qpmin=0 / qpmax=69 / qpstep=4 / ip_ratio=1.40 / pb_ratio=1.30 / aq=1:1.00
Language : English
Default : Yes
Forced : No

Audio
ID : 2
Format : AC-3
Format/Info : Audio Coding 3
Mode extension : CM (complete main)
Format settings, Endianness : Big
Codec ID : A_AC3
Duration : 1 h 41 min
Bit rate mode : Constant
Bit rate : 640 kb/s
Channel(s) : 6 channels
Channel positions : Front: L C R, Side: L R, LFE
Sampling rate : 48.0 kHz
Frame rate : 31.250 FPS (1536 spf)
Bit depth : 16 bits
Compression mode : Lossy
Stream size : 462 MiB (17%)
Title : Лицензия
Language : Russian
Default : Yes
Forced : No

Menu
00:00:00.000 : de:Chapter 01
00:08:31.761 : de:Chapter 02
00:16:33.158 : de:Chapter 03
00:24:32.971 : de:Chapter 04
00:34:38.326 : de:Chapter 05
00:44:11.857 : de:Chapter 06
00:52:39.614 : de:Chapter 07
01:01:05.203 : de:Chapter 08
01:09:50.352 : de:Chapter 09
01:19:00.819 : de:Chapter 10
01:26:46.075 : de:Chapter 11
01:33:54.962 : de:Chapter 12
01:41:01.180 : de:Chapter 13





Скачать Ночные.стражи.(Эмилис.Веливис).[2016.Фэнтези.боевик.BDRip].[720p].[R.G.GoldenShara].torrent без регистрации
Золото ЗОЛОТАЯ РАЗДАЧА! СКАЧАННОЕ НЕ ЗАСЧИТЫВАЕТСЯ! Золото
Дата: Зарегистрирован   [ Тип: внутренний ] Как тут cкачать?
MAGNET ссылка
MAGNET ссылка


Скачать .torrent

14 KB

Статус: проверено
Скачан: торрент - 72 раз, раздача полностью - 35 раз
Размер: 2,72 GB
Оценка:  5 (Голосов: 3)
Поблагодарили: 5
Поделиться ссылкой на эту раздачу с друзьями:
В контактеFacebookОдноклассникиTwitterLivejournalМой МирLiveinternet
 

 
Показать сообщения:    


Вы не можете начинать темы
Вы не можете отвечать на сообщения
Вы не можете редактировать свои сообщения
Вы не можете удалять свои сообщения
Вы не можете голосовать в опросах
Вы не можете прикреплять файлы к сообщениям
Вы можете скачивать файлы