Loading...
Error

Скачать Прометей / Prometheus (Ридли Скотт) [2012, Фантастика, триллер, приключения, BDRip][1080p] [DUB Лицензия] [R.G. GoldenShara] торрент без регистрации

Статистика раздачи
Размер:  4,36 GB   |    Скачан:  178 раз

Полного источника не было: 4 дня

Личеров:  1  [  0 KB/s  ]  
 
 
 
Автор Сообщение

Magnetto83

[] 


Прометей / Prometheus


Год выпуска: 2012
Выпущено: США, Великобритания | Brandywine Productions, Dune Entertainment, Scott Free Productions
Жанр: Фантастика, триллер, приключения
Продолжительность: 02:03:46
Перевод: Профессиональный (полное дублирование) | Blu-ray EUR |
Субтитры: Русские (Полные), украинские (повні), английские (Full)
Навигация по главам: Сохранены оригинальные главы как на Blu-ray

Слоган: «Они искали колыбель человечества, но нашли его погибель»

Режиссер: Ридли Скотт

В ролях: Нуми Рапас, Майкл Фассбендер, Шарлиз Терон, Идрис Эльба, Гай Пирс, Логан Маршалл-Грин, Шон Харрис, Рейф Сполл, Иман Эллиотт, Бенедикт Вонг, Кейт Дики, Патрик Уилсон, Люси Хатчинсон

Описание: В поисках сакрального знания группа ученых отправляется в самые темные и неизведанные чертоги вселенной. Именно там, в отдаленных мирах, находясь на пределе своих умственных и физических возможностей, им предстоит вступить в безжалостную схватку за будущее всего человечества…



Возраст: 18+ (зрителям, достигшим 18 лет. запрещено для детей)
Рейтинг MPAA: R (лицам до 17 лет обязательно присутствие взрослого)

Качество: BDRip 1080p
Формат: MKV
Видео кодек: H.264
Аудио кодек: AC3
Видео: 1908x800 (2.40:1), 5562 Кбит/с, 23.976 fps
Аудио: Русский Dolby Digital 5.1 (448 Кбит/с)


x264 [info]: frame I:1487 Avg QP:15.95 size:143832
x264 [info]: frame P:40939 Avg QP:19.34 size: 46309
x264 [info]: frame B:135630 Avg QP:21.84 size: 15905
x264 [info]: consecutive B-frames: 2.5% 3.1% 10.4% 27.0% 16.4% 25.4% 6.6% 7.4% 1.1%
x264 [total]: encoded 178056 frames, 1.50 fps, 4596.49 kb/s



General
Complete name : G:\Видео\Мои Рипы 1080p Коллекции (Многочастичные рипы)\Прометей. Чужой - Завет. 2012-2017 Dub Rus BDRip 1080p\Прометей 2012 Dub Rus BDRip 1080p.mkv
Format : Matroska
Format version : Version 4 / Version 2
File size : 4.36 GiB
Duration : 2h 3mn
Overall bit rate : 5 047 Kbps
Movie name : Прометей 2012 Dub Rus BDRip 1080p By R.G. GoldenShara
Encoded date : UTC 2017-08-19 09:13:40
Writing application : mkvmerge v7.8.0 ('River Man') 32bit built on Mar 27 2015 16:18:02
Writing library : libebml v1.3.1 + libmatroska v1.4.2
Attachements : cover.jpg
DURATION : 01:58:12.535000000
NUMBER_OF_FRAMES : 1421
NUMBER_OF_BYTES : 38162
_STATISTICS_WRITING_APP : mkvmerge v7.8.0 ('River Man') 32bit built on Mar 27 2015 16:18:02
_STATISTICS_WRITING_DATE_UTC : 2017-08-19 09:13:40
_STATISTICS_TAGS : BPS DURATION NUMBER_OF_FRAMES NUMBER_OF_BYTES

Video
ID : 1
Format : AVC
Format/Info : Advanced Video Codec
Format profile : High@L4.1
Format settings, CABAC : Yes
Format settings, ReFrames : 5 frames
Codec ID : V_MPEG4/ISO/AVC
Duration : 2h 3mn
Bit rate : 4 601 Kbps
Width : 1 920 pixels
Height : 800 pixels
Display aspect ratio : 2.40:1
Frame rate mode : Constant
Frame rate : 23.976 fps
Color space : YUV
Chroma subsampling : 4:2:0
Bit depth : 8 bits
Scan type : Progressive
Bits/(Pixel*Frame) : 0.125
Stream size : 3.89 GiB (89%)
Title : Прометей 2012 Dub Rus BDRip 1080p By Magnetto 83
Writing library : x264 core 146 r2538 121396c
Encoding settings : cabac=1 / ref=5 / deblock=1:-3:-3 / analyse=0x3:0x113 / me=umh / subme=11 / psy=1 / psy_rd=1.00:0.00 / mixed_ref=1 / me_range=32 / chroma_me=1 / trellis=2 / 8x8dct=1 / cqm=0 / deadzone=21,11 / fast_pskip=0 / chroma_qp_offset=-2 / threads=3 / lookahead_threads=1 / sliced_threads=0 / nr=0 / decimate=1 / interlaced=0 / bluray_compat=0 / constrained_intra=0 / bframes=8 / b_pyramid=2 / b_adapt=2 / b_bias=0 / direct=3 / weightb=1 / open_gop=0 / weightp=2 / keyint=250 / keyint_min=23 / scenecut=40 / intra_refresh=0 / rc=2pass / mbtree=0 / bitrate=4601 / ratetol=1.0 / qcomp=0.60 / qpmin=0 / qpmax=69 / qpstep=4 / cplxblur=20.0 / qblur=0.5 / ip_ratio=1.40 / pb_ratio=1.30 / aq=2:1.00
Language : English
Default : Yes
Forced : No

Audio
ID : 2
Format : AC-3
Format/Info : Audio Coding 3
Mode extension : CM (complete main)
Format settings, Endianness : Big
Codec ID : A_AC3
Duration : 2h 3mn
Bit rate mode : Constant
Bit rate : 448 Kbps
Channel(s) : 6 channels
Channel positions : Front: L C R, Side: L R, LFE
Sampling rate : 48.0 KHz
Compression mode : Lossy
Stream size : 397 MiB (9%)
Title : DD 5.1 @ 448 kbps - Дублированный | Blu-ray EUR |
Language : Russian
Default : Yes
Forced : No

Text #1
ID : 3
Format : UTF-8
Codec ID : S_TEXT/UTF8
Codec ID/Info : UTF-8 Plain Text
Title : Полные
Language : Russian
Default : No
Forced : No

Text #2
ID : 4
Format : UTF-8
Codec ID : S_TEXT/UTF8
Codec ID/Info : UTF-8 Plain Text
Title : Повні
Language : Ukrainian
Default : No
Forced : No

Text #3
ID : 5
Format : UTF-8
Codec ID : S_TEXT/UTF8
Codec ID/Info : UTF-8 Plain Text
Title : Full
Language : English
Default : No
Forced : No

Menu
00:00:00.000 : en:Chapter 1
00:05:13.146 : en:Chapter 2
00:07:44.881 : en:Chapter 3
00:11:31.524 : en:Chapter 4
00:15:09.784 : en:Chapter 5
00:20:04.912 : en:Chapter 6
00:22:32.810 : en:Chapter 7
00:27:43.120 : en:Chapter 8
00:31:57.833 : en:Chapter 9
00:34:10.840 : en:Chapter 10
00:37:53.229 : en:Chapter 11
00:40:45.360 : en:Chapter 12
00:45:49.330 : en:Chapter 13
00:48:47.925 : en:Chapter 14
00:50:23.062 : en:Chapter 15
00:53:56.400 : en:Chapter 16
00:56:32.222 : en:Chapter 17
00:59:31.610 : en:Chapter 18
01:01:29.185 : en:Chapter 19
01:04:17.562 : en:Chapter 20
01:06:01.457 : en:Chapter 21
01:08:57.884 : en:Chapter 22
01:11:13.519 : en:Chapter 23
01:15:10.631 : en:Chapter 24
01:17:06.038 : en:Chapter 25
01:25:02.306 : en:Chapter 26
01:27:09.349 : en:Chapter 27
01:30:10.363 : en:Chapter 28
01:32:43.725 : en:Chapter 29
01:35:23.134 : en:Chapter 30
01:37:46.861 : en:Chapter 31
01:40:46.374 : en:Chapter 32
01:43:46.220 : en:Chapter 33
01:48:28.794 : en:Chapter 34
01:52:08.096 : en:Chapter 35
01:58:06.288 : en:Chapter 36







Скачать Прометей.Prometheus.(Ридли.Скотт).[2012.Фантастика.триллер.приключения.BDRip][1080p].[DUB.Лицензия].[R.G.GoldenShara].torrent без регистрации
Золото ЗОЛОТАЯ РАЗДАЧА! СКАЧАННОЕ НЕ ЗАСЧИТЫВАЕТСЯ! Золото
Дата: Зарегистрирован   [ Тип: внутренний ] Как тут cкачать?
MAGNET ссылка
MAGNET ссылка


Скачать .torrent

11 KB

Статус: проверено
Скачан: торрент - 178 раз, раздача полностью - 123 раз
Размер: 4,36 GB
Оценка:  5 (Голосов: 7)
Поблагодарили: 15
Поделиться ссылкой на эту раздачу с друзьями:
В контактеFacebookОдноклассникиTwitterLivejournalМой МирLiveinternet
 

 

Xupypr84

[] 

Встаньте на раздачу)))))
 

dorga6

[] 

Ждал именно Вашего рипа, спасибо!
 

Magnetto83

[] 

az Пожалуйста! bs Через недельку будет рип фильма "Чужой: Завет". (Сам рип уже готовый, и ждёт качественного звука) ad
 

topalov

[] 

Magnetto83
ой-хо-хо!
 

dimamal80

[] 

Я не знаю почему критики засрали этот фильм - по мне ооочень неплох, и Завет тоже не оплошал
 

Magnetto83

[] 

ab Лично мне одинаково на мнение критиков! Что "Прометей", что "Завет" мне понравились! А там пусть пишут что хотят! ad
 

dimamal80

[] 

Magnetto83
Согласен, мнение критиков - это их личное мнение, а последние 2 фильма удались!
 
Показать сообщения:    


Вы не можете начинать темы
Вы не можете отвечать на сообщения
Вы не можете редактировать свои сообщения
Вы не можете удалять свои сообщения
Вы не можете голосовать в опросах
Вы не можете прикреплять файлы к сообщениям
Вы можете скачивать файлы