Loading...
Error

Скачать Их знали только в лицо (Антон Тимонишин) [1966, драма, военный, HDTVRip] [1080p] торрент без регистрации

Статистика раздачи
Размер:  4,2 GB   |    Скачан:  49 раз
Сидов:  1  [  0 KB/s  ]  
 
 
 
Автор Сообщение

Marsianka

[] 

Информация о фильме
Название: Их знали только в лицо
Год выхода: 1966
Жанр: драма, военный
Режиссер: Антон Тимонишин
В ролях: Александр Белявский, Геннадий Воропаев, Марина Стриженова, Ирина Мирошниченко, Лаврентий Масоха, Александр Сердюк, Юрий Волков, Елена Добронравова, Степан Крылов, Борис Савченко, Александр Мовчан, Владимир Емельянов, Олег Комаров, Алексей Смирнов, Владимир Волчик, Сергей Голованов, Анатолий Вербицкий, Генрих Осташевский, Валерий Панарин, Владимир Кисленко

О фильме:
Один из оккупированных немцами, строжайше охраняемых портов постоянно сотрясают взрывы: взлетают на воздух военные корабли, танкеры с нефтью, транспортеры с продовольствием. Чего только не предпринимает опытный военачальник Рейнкардт для ликвидации партизанского движения: облавы и аресты, вызван отряд из Италии, закаленный в подводной войне с Англией, но ничего не помогает. В ходе расследования в связи с партизанами начинают подозревать Галину Ортынскую, переводчицу из комендатуры порта, аккуратную и исполнительную служащую



Страна: СССР
Студия: Довженко
Продолжительность: 01:26:59
Перевод: Не требуется

Файл
Кодек: x264
Качество: HDTVRip 1080p [HDTV 1080i - MIFAL]
Видео: 1920x820 (2.35:1), 25 fps, ~6579 kbps
Звук: AC3, 2.0, 48 kHz, 192 kbps
Субтитры: Отсутствуют

Доп. информация: Настоящее HD, видео и звук несравнимо лучше старого DVD + картинка не обрезана по бокам.
General
Unique ID : 257187286057011269050013154511025211019 (0xC17C7834A4F155D22D175ACDF782068B)
Complete name : F:FILMSИх знали только в лицо.(1966).HDTVRIP-AVC.[-=DoMiNo=-].mkv
Format : Matroska
Format version : Version 4 / Version 2
File size : 4.20 GiB
Duration : 1 h 26 min
Overall bit rate : 6 909 kb/s
Movie name : Их знали только в лицо
Writing application : XviD4PSP 7.0.401 DAILY
Writing library : Lavf57.71.100
ErrorDetectionType : Per level 1
Attachments : poster.jpg
ACTORS : Юрий Волков, Александр Белявский, Ирина Мирошниченко, Алексей Смирнов, Владимир Емельянов, Степан Крылов, П. Бантыш, Елена Добронравова, Сергей Голованов, О. Гринаковский, Дмитрий Капка, Валерий Кисленко, Эрвин Кнаусмюллер, Олег Комаров, Лаврентий Масоха, Ю. Миронченко, Александр Мовчан, Генрих Осташевский, Валерий Панарин, Ирина Писаревич, Василий Савченко, Лесь Сердюк, И. Шевченко, И. Шелюгин, Марина Стриженова, А. Уманец, А. Василевский, Анатолий Вербицкий, Владимир Волчик, Геннадий Воропаев, В. Задорожный, Владимир Кисленко, Борис Савченко, Виктор Плотников
COMPOSER : Игорь Шамо
COUNTRY : СССР
DATE : 1966
DIRECTOR : Антон Тимонишин
ENCODING_INFO : MATROSKA,WEBM > MKV 1080p / H264 > X264 CRF 21.0 Произвольный / MP2 > AC3 CBR 192kbps
GENRE : драма
HD_VIDEO : 1
IMDB_RATING : 6.60
ITUNEXTC : ru-movie|12+|200|
Language : und
MEDIA_TYPE : 9
PRODUCER : Алексей Ярмольский
RATING : 6.939
SYNOPSIS : Один из оккупированных немцами, строжайше охраняемых портов постоянно сотрясают взрывы: взлетают на воздух военные корабли, танкеры с нефтью, транспортеры с продовольствием.Чего только не предпринимает опытный военачальник Рейнкардт для ликвидации партизанского движения: облавы и аресты, вызван отряд из Италии, закаленный в подводной войне с Англией, но ничего не помогает. В ходе расследования в связи с партизанами начинают подозревать Галину Ортынскую, переводчицу из комендатуры порта, аккуратную и исполнительную служащую…
WRITER : Эдуард Ростовцев, Б. Юнгер, Игорь Луковский

Video
ID : 1
Format : AVC
Format/Info : Advanced Video Codec
Format profile : High@L4.1
Format settings, CABAC : Yes
Format settings, RefFrames : 5 frames
Codec ID : V_MPEG4/ISO/AVC
Duration : 1 h 26 min
Bit rate : 6 579 kb/s
Width : 1 920 pixels
Height : 820 pixels
Display aspect ratio : 2.35:1
Frame rate mode : Constant
Frame rate : 25.000 FPS
Color space : YUV
Chroma subsampling : 4:2:0
Bit depth : 8 bits
Scan type : Progressive
Bits/(Pixel*Frame) : 0.167
Stream size : 4.00 GiB (95%)
Title : HDTVRIP_1080p_RIP_BY_-=DoMiNo=-
Writing library : x264 core 152 r2851M ba24899
Encoding settings : cabac=1 / ref=5 / deblock=1:-3:-3 / analyse=0x3:0x113 / me=umh / subme=10 / psy=1 / psy_rd=1.00:0.05 / mixed_ref=1 / me_range=32 / chroma_me=1 / trellis=2 / 8x8dct=1 / cqm=0 / deadzone=21,11 / fast_pskip=1 / chroma_qp_offset=-3 / threads=6 / lookahead_threads=1 / sliced_threads=0 / nr=0 / decimate=1 / interlaced=0 / bluray_compat=0 / constrained_intra=0 / bframes=8 / b_pyramid=2 / b_adapt=2 / b_bias=0 / direct=3 / weightb=1 / open_gop=0 / weightp=2 / keyint=250 / keyint_min=25 / scenecut=40 / intra_refresh=0 / rc_lookahead=60 / rc=crf / mbtree=1 / crf=21.0 / qcomp=0.70 / qpmin=0 / qpmax=69 / qpstep=4 / ip_ratio=1.40 / aq=1:1.00
Default : Yes
Forced : No
Color range : Limited
Color primaries : BT.709
Transfer characteristics : BT.709
Matrix coefficients : BT.709

Audio
ID : 2
Format : AC-3
Format/Info : Audio Coding 3
Format settings, Endianness : Big
Codec ID : A_AC3
Duration : 1 h 26 min
Bit rate mode : Constant
Bit rate : 192 kb/s
Channel(s) : 2 channels
Channel positions : Front: L R
Sampling rate : 48.0 kHz
Frame rate : 31.250 FPS (1536 SPF)
Bit depth : 16 bits
Compression mode : Lossy
Stream size : 119 MiB (3%)
Title : RUS_AC3
Language : Russian
Service kind : Complete Main
Default : Yes
Forced : No

Menu
00:00:00.000 : :Глава 1
00:04:38.120 : :Глава 2
00:08:59.240 : :Глава 3
00:13:43.255 : :Глава 4
00:18:38.936 : :Глава 5
00:23:12.855 : :Глава 6
00:28:31.096 : :Глава 7
00:34:14.136 : :Глава 8
00:39:48.336 : :Глава 9
00:46:13.616 : :Глава 10
00:51:35.295 : :Глава 11
00:58:14.655 : :Глава 12
01:04:52.735 : :Глава 13
01:12:15.696 : :Глава 14
01:18:15.376 : :Глава 15
01:23:16.096 : :Глава 16



Скачать Их.знали.только.в.лицо.(Антон.Тимонишин).[1966.драма.военный.HDTVRip].[1080p].torrent без регистрации
Золото ЗОЛОТАЯ РАЗДАЧА! СКАЧАННОЕ НЕ ЗАСЧИТЫВАЕТСЯ! Золото
Дата: Зарегистрирован   [ Тип: внутренний ] Как тут cкачать?
MAGNET ссылка
MAGNET ссылка


Скачать .torrent

12 KB

Статус: проверено DHT
Скачан: торрент - 49 раз, раздача полностью - 4 раз
Размер: 4,2 GB
Оценка:  - (Голосов: 0)
Поблагодарили: 1
Поделиться ссылкой на эту раздачу с друзьями:
В контактеFacebookОдноклассникиTwitterLivejournalМой МирLiveinternet
 

 
Показать сообщения:    


Вы не можете начинать темы
Вы не можете отвечать на сообщения
Вы не можете редактировать свои сообщения
Вы не можете удалять свои сообщения
Вы не можете голосовать в опросах
Вы не можете прикреплять файлы к сообщениям
Вы можете скачивать файлы