Loading...
Error

Скачать Жил-был кот / Rudorufu to ippai attena / Rudolf The Black Cat (Микинори Сакакибара, Кунихико Юяма) [2016, комедия, приключения, BDRip] [1080p] [DUB] [Лицензия / iTunes] торрент без регистрации

Статистика раздачи
Размер:  8,97 GB   |    Скачан:  140 раз
Сидов:  1  [  0 KB/s  ]  
 
 
 
Автор Сообщение

leon030982

[] 

Жил-был кот /Rudorufu to ippai attena / Rudolf The Black Cat

Год выхода: 2016
Жанр: комедия, приключения
Страна: Япония, Канада
Студия: Bandai, Chukyo TV Broadcasting Company (CTV), D.N. Dream Partners, Dentsu и еще 17...
Продолжительность: 01:28:39
Перевод: Дублированный [Лицензия / iTunes]

Режиссер: Микинори Сакакибара, Кунихико Юяма

В ролях: Мао Иноуэ, Рёхэй Судзуки, Норито Ясима, Арата Фурута, Сандаю Докумамуси, Нана Мидзуки, Рио Сасаки, Юка Тэрасаки, Акио Оцука

О фильме:
История маленького чёрного котёнка с гордым именем Рудольф, жившего счастливо и спокойно ровно до тех пор, пока по роковой случайности он не оказался в неизвестном большом городе. Здесь герою придётся выживать без ласки и заботы хозяев, а ведь раньше он был твёрдо убежден, что всегда будет в полной безопасности. Блуждая по улицам незнакомого города, Рудо встречает взрослого полосатого кота, нагоняющего ужас на всю округу. Он становится для малыша наставником, учит жизни на улице и помогает обрести новых друзей.



Качество: BDRip 1080p
Кодек: MKV
Видео: MPEG-4 AVC, 12800 Кбит/с, 1920х1080, 23.976 кадр/с
Звук: AC3, 48 KHz, 2 ch ~ 192 Kb/s - дубляж
Звук: DTS, 48 KHz, 6 ch ~ 1509 Kb/s - японский
Субтитры: отсутствуют
Общее
Уникальный идентификатор : 220710164655165968144160498156792797124 (0xA60B3B44806BC89EA623D80478FD57C4)
Полное имя : D:Rudolf.the.Black.Cat.2016.1080p.x264.Master5.mkv
Формат : Matroska
Версия формата : Version 4 / Version 2
Размер файла : 8,97 Гбайт
Продолжительность : 1 ч. 28 м.
Общий поток : 14,5 Мбит/сек
Название фильма : Rudolf.the.Black.Cat.2016.1080p.x264.Master5
Дата кодирования : UTC 2017-08-27 20:38:34
Программа кодирования : mkvmerge v8.1.0 ('Psychedelic Postcard') 32bit
Библиотека кодирования : libebml v1.3.1 + libmatroska v1.4.2

Видео
Идентификатор : 1
Формат : AVC
Формат/Информация : Advanced Video Codec
Профиль формата : High@L4.1
Параметр CABAC формата : Да
Параметр ReFrames формата : 4 кадра
Идентификатор кодека : V_MPEG4/ISO/AVC
Продолжительность : 1 ч. 28 м.
Битрейт : 12,8 Мбит/сек
Ширина : 1920 пикселей
Высота : 1080 пикселей
Соотношение сторон : 16:9
Режим частоты кадров : Постоянный
Частота кадров : 23,976 (24000/1001) кадра/сек
Цветовое пространство : YUV
Субдискретизация насыщенности : 4:2:0
Битовая глубина : 8 бит
Тип развёртки : Прогрессивная
Бит/(Пиксели*Кадры) : 0.257
Размер потока : 7,91 Гбайт (88%)
Заголовок : Rudolf.the.Black.Cat.2016.1080p.x264.Master5
Библиотека кодирования : x264 core 129 r2245+704+36 8e61944 tMod+MixAQ [8-bit@4:2:0 X86_64]
Настройки программы : cabac=1 / ref=4 / deblock=1:-1:-1 / analyse=0x3:0x133 / me=umh / subme=11 / psy=1 / fade_compensate=0.00 / psy_rd=1.00:0.00 / mixed_ref=1 / me_range=64 / chroma_me=1 / trellis=2 / 8x8dct=1 / cqm=0 / deadzone=21,11 / fast_pskip=0 / chroma_qp_offset=-2 / threads=18 / lookahead_threads=3 / sliced_threads=0 / nr=0 / decimate=0 / interlaced=0 / bluray_compat=0 / constrained_intra=0 / fgo=0 / bframes=10 / b_pyramid=2 / b_adapt=2 / b_bias=0 / direct=3 / weightb=1 / open_gop=0 / weightp=2 / keyint=250 / keyint_min=23 / scenecut=40 / intra_refresh=0 / rc=2pass / mbtree=0 / bitrate=12772 / ratetol=1.0 / qcomp=0.70 / qpmin=0 / qpmax=69 / qpstep=4 / cplxblur=20.0 / qblur=0.5 / ip_ratio=1.40 / pb_ratio=1.30 / aq=1 / aq-strength=0.95 / aq-sensitivity=10.00 / aq-ifactor=1.00 / aq-pfactor=1.00 / aq-bfactor=1.00 / aq2=0
Язык : Japanese
Default : Да
Forced : Нет

Аудио #1
Идентификатор : 2
Формат : DTS
Формат/Информация : Digital Theater Systems
Режим : 16
Параметр Endianness формата : Big
Идентификатор кодека : A_DTS
Продолжительность : 1 ч. 28 м.
Вид битрейта : Постоянный
Битрейт : 1509 Кбит/сек
Каналы : 6 каналов
Расположение каналов : Front: L C R, Side: L R, LFE
Частота : 48,0 КГц
Частота кадров : 93,750 кадра/сек (512 spf)
Битовая глубина : 24 бит
Метод сжатия : С потерями
Размер потока : 957 Мбайт (10%)
Язык : Japanese
Default : Нет
Forced : Нет

Аудио #2
Идентификатор : 3
Формат : AC-3
Формат/Информация : Audio Coding 3
Расширение режима : CM (complete main)
Параметр Endianness формата : Big
Идентификатор кодека : A_AC3
Продолжительность : 1 ч. 28 м.
Вид битрейта : Постоянный
Битрейт : 192 Кбит/сек
Каналы : 2 канала
Расположение каналов : Front: L R
Частота : 48,0 КГц
Частота кадров : 31,250 кадров/сек (1536 spf)
Метод сжатия : С потерями
Размер потока : 122 Мбайт (1%)
Язык : Russian
Default : Да
Forced : Нет

Меню
00:00:00.000 : en:00:00:00.000
00:13:02.823 : en:00:13:02.823
00:28:16.653 : en:00:28:16.653
00:43:11.714 : en:00:43:11.714
00:59:12.840 : en:00:59:12.840
01:09:13.148 : en:01:09:13.148
01:24:27.062 : en:01:24:27.062



Скачать Жил-был.кот.Rudorufu.to.ippai.attena.Rudolf.The.Black.Cat.(Микинори.Сакакибара.Кунихико.Юяма).[2016.комедия.приключения.BDRip].[1080p].[DUB].[Лицензия.iTunes].torrent без регистрации
Золото ЗОЛОТАЯ РАЗДАЧА! СКАЧАННОЕ НЕ ЗАСЧИТЫВАЕТСЯ! Золото
Дата: Зарегистрирован   [ Тип: внутренний ] Как тут cкачать?
MAGNET ссылка
MAGNET ссылка


Скачать .torrent

91 KB

Статус: проверено DHT
Скачан: торрент - 140 раз, раздача полностью - 214 раз
Размер: 8,97 GB
Оценка:  5 (Голосов: 3)
Поблагодарили: 6
Поделиться ссылкой на эту раздачу с друзьями:
В контактеFacebookОдноклассникиTwitterLivejournalМой МирLiveinternet
 

 
Показать сообщения:    


Вы не можете начинать темы
Вы не можете отвечать на сообщения
Вы не можете редактировать свои сообщения
Вы не можете удалять свои сообщения
Вы не можете голосовать в опросах
Вы не можете прикреплять файлы к сообщениям
Вы можете скачивать файлы