Loading...
Error

Скачать Виктория / Victoria (Сезон 02) (Том Вон, Оливер Блэкбёрн, Сандра Голдбахер) [2017, драма, история, биография, WEB-DL] [720p] [MVO] (NewStudio) торрент без регистрации

Статистика раздачи
Размер:  10,44 GB   |    Скачан:  17 раз
Сидов:  1  [  0 KB/s  ]  
 
 
 
Автор Сообщение

leon030982

[] 

Виктория / Victoria



Год выпуска: 2017
Страна: Великобритания
Жанр: драма, история, биография
Продолжительность: 1х ~ 00:49:55
Перевод: Профессиональный (многоголосый) *NewStudio*

Режиссёр: Том Вон, Оливер Блэкбёрн, Сандра Голдбахер, Лиза Джеймс Ларсен

В ролях: Дженна Коулман,Том Хьюз, Дайана Ригг, Томми Найт, Руфус Сьюэлл и другие

Описание: Во втором сезоне молодая королева столкнётся с актуальной в современное время дилеммой: как совместить свою работу с детьми и мужем.



Качество: WEB-DL 720p
Формат: MKV
Видео: 1280х720 (16:9) MPEG4, 25fps, ~2308 Kbps
Аудио: AC-3, 48.0 kHz, 6 channels, 192 kb/s - MVO
Аудио: AC-3, 48.0 kHz, 6 channels, 224 kb/s - ENG
Субтитры: нет

Торент обновлен! Добавлена 5-8-я серия
Внимание! Раздача ведётся путём добавления новых серий - по мере выхода серий, раздача будет обновляться, и при каждом добавлении создаваться новый торрент.
Чтобы начать докачку новой серии, пользователям необходимо:
1. Остановить скачивание.
2. Удалить старый торрент у себя из клиента (старые серии удалять не надо).
3. Скачать новый торрент и запустить его у себя в клиенте вместо старого, при этом указать клиенту путь в старую папку куда и должно происходить скачивание новых серий.

Ваш клиент при этом должен произвести хеширование (проверку) старой папки (если не производит сам - помогите ему сделать это), и будет докачивать только те серии которых у вас ещё нет. Старые серии при этом не удаляются, а продолжают раздаваться. Eсли вы уже удалили старые серии, то предотвратить повторную закачку старых серий можно отжав галочку в соответствующих местах при запуске нового торрента. По возможности, желательно не удалять старые серии как можно дольше, чтобы релизер не столько продолжал раздавать старые серии, сколько мог сконцентрироваться на новых.
General
Unique ID : 218218004744357623706993631048062487281 (0xA42B424C21693D0E93890059A7B84AF1)
Complete name : E:\Victoria.s02e01.WEBDL.720p.NewStudio.mkv
Format : Matroska
Format version : Version 4 / Version 2
File size : 973 MiB
Duration : 49mn 55s
Overall bit rate mode : Variable
Overall bit rate : 2 726 Kbps
Encoded date : UTC 2017-09-10 16:48:03
Writing application : mkvmerge v8.2.0 ('World of Adventure') 32bit
Writing library : libebml v1.3.1 + libmatroska v1.4.2

Video
ID : 1
Format : AVC
Format/Info : Advanced Video Codec
Format profile : High@L3.1
Format settings, CABAC : Yes
Format settings, ReFrames : 5 frames
Codec ID : V_MPEG4/ISO/AVC
Duration : 49mn 55s
Bit rate mode : Variable
Bit rate : 2 256 Kbps
Maximum bit rate : 4 500 Kbps
Width : 1 280 pixels
Height : 720 pixels
Display aspect ratio : 16:9
Frame rate mode : Constant
Frame rate : 25.000 fps
Color space : YUV
Chroma subsampling : 4:2:0
Bit depth : 8 bits
Scan type : Progressive
Bits/(Pixel*Frame) : 0.098
Stream size : 805 MiB (83%)
Default : Yes
Forced : No
Color range : Limited
Color primaries : BT.709
Transfer characteristics : BT.709
Matrix coefficients : BT.709

Audio #1
ID : 2
Format : AC-3
Format/Info : Audio Coding 3
Mode extension : CM (complete main)
Format settings, Endianness : Big
Codec ID : A_AC3
Duration : 49mn 55s
Bit rate mode : Constant
Bit rate : 192 Kbps
Channel(s) : 2 channels
Channel positions : Front: L R
Sampling rate : 48.0 KHz
Compression mode : Lossy
Stream size : 68.6 MiB (7%)
Title : NewStudio
Language : Russian
Default : Yes
Forced : No

Audio #2
ID : 3
Format : E-AC-3
Format/Info : Audio Coding 3
Format settings, Endianness : Big
Codec ID : A_EAC3
Duration : 49mn 55s
Bit rate mode : Constant
Bit rate : 224 Kbps
Channel(s) : 2 channels
Channel positions : Front: L R
Sampling rate : 48.0 KHz
Compression mode : Lossy
Stream size : 80.0 MiB (8%)
Language : English
Default : No
Forced : No




Скачать Виктория.Victoria.(Сезон.02).(Том.Вон.Оливер.Блэкбёрн.Сандра.Голдбахер).[2017.драма.история.биография.WEB-DL].[720p].[MVO].(NewStudio).torrent без регистрации
Золото ЗОЛОТАЯ РАЗДАЧА! СКАЧАННОЕ НЕ ЗАСЧИТЫВАЕТСЯ! Золото
Дата: Зарегистрирован   [ Тип: внутренний ] Как тут cкачать?
MAGNET ссылка
MAGNET ссылка


Скачать .torrent

53 KB

Статус: проверено DHT
Скачан: торрент - 17 раз, раздача полностью - 2 раз
Размер: 10,44 GB
Оценка:  - (Голосов: 0)
Поблагодарили: 0
Поделиться ссылкой на эту раздачу с друзьями:
В контактеFacebookОдноклассникиTwitterLivejournalМой МирLiveinternet
 

 
Показать сообщения:    


Вы не можете начинать темы
Вы не можете отвечать на сообщения
Вы не можете редактировать свои сообщения
Вы не можете удалять свои сообщения
Вы не можете голосовать в опросах
Вы не можете прикреплять файлы к сообщениям
Вы можете скачивать файлы