Loading...
Error

Скачать Конь БоДжек / BoJack Horseman (Сезон 04) (Рафаэль Боб-Уоксберг) [2017, Мультфильм, драма, комедия, сатира, WEB-DL] [1080p] [MVO] (NewStudio) + [Orig] торрент без регистрации

Статистика раздачи
Размер:  12,47 GB   |    Скачан:  11 раз
Сидов:  1  [  0 KB/s  ]  
 
 
 
Автор Сообщение

leon030982

[] 

Конь БоДжек
BoJack Horseman
Сезон 4
Год выпуска: 2017
Страна: США
Производство: Netflix
Жанр: Мультфильм, драма, комедия, сатира
Продолжительность: ~00:26:00
Перевод: Профессиональный (многоголосый закадровый) | NewStudio
Оригинальная звуковая дорожка: (English)
субтитры: русские

Режиссёр: Рафаэль Боб-Уоксберг / Raphael Bob-Waksberg и др.

В ролях: Конь и остальные ))

Описание: Действие происходит в мире населенном антропоморфными животными и людьми. Большая часть сюжета происходит в Лос-Анджелесе. БоДжек — звезда ситуационной комедии, популярной в конце 80-х — начале 90-х годов, на момент времени происходящего в сериале, БоДжек переживает кризис среднего возраста. В попытках вернуть былую популярность и любовь публики, БоДжек пытается написать автобиографию. Но не справляется с этим ввиду собственной лени, после уговоров агента и издателя, он нанимает писателя Диану Нгуен, которая проводит с ним много времени интервьюируя его, узнавая о его прошлом и работе в сериале. Впоследствии между ними возникает симпатия. Сюжет подается нам вперемешку с воспоминаниями БоДжека и его нынешним положением. Под конец первого сезона, вся сюжетная линия объединяется и зритель видит полную картину жизненного пути Коня БоДжека.



Качество: WEB-DL 1080p
Формат: MKV
Видео: 1920x1080 (16:9) at 23.976 fps, Main@L4, ~5620 kbps avg, ~0.113 bpp
Аудио: Russian: 48 kHz, AC3 Dolby Digital, 5.1 ch, ~384 kbps | Студия NewStudio
Аудио: English: 48 kHz, AC3 Dolby Digital, 5.1 ch, ~384 kbpsСубтитры: English (*.srt), Russian-forced (*.ass)
Внимание! Раздача ведётся путём добавления новых серий - по мере выхода серий, раздача будет обновляться, и при каждом добавлении создаваться новый торрент.
Чтобы начать докачку новой серии, пользователям необходимо:
1. Остановить скачивание.
2. Удалить старый торрент у себя из клиента (старые серии удалять не надо).
3. Скачать новый торрент и запустить его у себя в клиенте вместо старого, при этом указать клиенту путь в старую папку куда и должно происходить скачивание новых серий.

Ваш клиент при этом должен произвести хеширование (проверку) старой папки (если не производит сам - помогите ему сделать это), и будет докачивать только те серии которых у вас ещё нет. Старые серии при этом не удаляются, а продолжают раздаваться. Eсли вы уже удалили старые серии, то предотвратить повторную закачку старых серий можно отжав галочку в соответствующих местах при запуске нового торрента. По возможности, желательно не удалять старые серии как можно дольше, чтобы релизер не столько продолжал раздавать старые серии, сколько мог сконцентрироваться на новых.
General
Unique ID : 201825140294811020510277203499665012255 (0x97D61BADE8BE8747B44D3E1E98BF361F)
Complete name : E:\BoJack.Horseman.s04.WEBDL.1080p.NewStudio.TV\BoJack.Horseman.s04e01.WEBDL.1080p.NewStudio.TV.mkv
Format : Matroska
Format version : Version 4 / Version 2
File size : 1.16 GiB
Duration : 26mn 32s
Overall bit rate mode : Variable
Overall bit rate : 6 265 Kbps
Encoded date : UTC 2017-09-09 16:15:06
Writing application : mkvmerge v8.2.0 ('World of Adventure') 32bit
Writing library : libebml v1.3.1 + libmatroska v1.4.2

Video
ID : 1
Format : AVC
Format/Info : Advanced Video Codec
Format profile : Main@L4
Format settings, CABAC : Yes
Format settings, ReFrames : 3 frames
Codec ID : V_MPEG4/ISO/AVC
Duration : 26mn 32s
Bit rate mode : Variable
Bit rate : 5 620 Kbps
Maximum bit rate : 8 430 Kbps
Width : 1 920 pixels
Height : 1 080 pixels
Display aspect ratio : 16:9
Frame rate mode : Constant
Frame rate : 23.976 fps
Color space : YUV
Chroma subsampling : 4:2:0
Bit depth : 8 bits
Scan type : Progressive
Bits/(Pixel*Frame) : 0.113
Stream size : 1 020 MiB (86%)
Writing library : x264 core 118
Encoding settings : cabac=1 / ref=3 / deblock=1:0:0 / analyse=0x1:0x111 / me=umh / subme=10 / psy=1 / psy_rd=1.00:0.00 / mixed_ref=1 / me_range=24 / chroma_me=1 / trellis=2 / 8x8dct=0 / cqm=0 / deadzone=21,11 / fast_pskip=1 / chroma_qp_offset=-2 / threads=6 / sliced_threads=0 / nr=0 / decimate=1 / interlaced=0 / bluray_compat=0 / constrained_intra=0 / bframes=2 / b_pyramid=0 / b_adapt=2 / b_bias=0 / direct=3 / weightb=1 / open_gop=0 / weightp=2 / keyint=48 / keyint_min=25 / scenecut=0 / intra_refresh=0 / rc_lookahead=0 / rc=2pass / mbtree=1 / bitrate=5620 / ratetol=1.0 / qcomp=0.50 / qpmin=6 / qpmax=51 / qpstep=4 / cplxblur=20.0 / qblur=0.5 / vbv_maxrate=8430 / vbv_bufsize=11240 / nal_hrd=vbr / ip_ratio=1.40 / aq=1:1.00
Default : Yes
Forced : No

Audio #1
ID : 2
Format : AC-3
Format/Info : Audio Coding 3
Mode extension : CM (complete main)
Format settings, Endianness : Big
Codec ID : A_AC3
Duration : 26mn 32s
Bit rate mode : Constant
Bit rate : 384 Kbps
Channel(s) : 6 channels
Channel positions : Front: L C R, Side: L R, LFE
Sampling rate : 48.0 KHz
Compression mode : Lossy
Stream size : 72.9 MiB (6%)
Title : NewStudio.TV
Language : Russian
Default : Yes
Forced : No

Audio #2
ID : 3
Format : AC-3
Format/Info : Audio Coding 3
Mode extension : CM (complete main)
Format settings, Endianness : Big
Codec ID : A_AC3
Duration : 26mn 32s
Bit rate mode : Constant
Bit rate : 384 Kbps
Channel(s) : 6 channels
Channel positions : Front: L C R, Side: L R, LFE
Sampling rate : 48.0 KHz
Compression mode : Lossy
Stream size : 72.9 MiB (6%)
Language : English
Default : No
Forced : No

Text
ID : 4
Format : ASS
Codec ID : S_TEXT/ASS
Codec ID/Info : Advanced Sub Station Alpha
Compression mode : Lossless
Title : Forced
Language : Russian
Default : Yes
Forced : Yes




Скачать Конь.БоДжек.BoJack.Horseman.(Сезон.04).(Рафаэль.Боб-Уоксберг).[2017.Мультфильм.драма.комедия.сатира.WEB-DL].[1080p].[MVO].(NewStudio).+.[Orig].torrent без регистрации
Золото ЗОЛОТАЯ РАЗДАЧА! СКАЧАННОЕ НЕ ЗАСЧИТЫВАЕТСЯ! Золото
Дата: Зарегистрирован   [ Тип: внутренний ] Как тут cкачать?
MAGNET ссылка
MAGNET ссылка


Скачать .torrent

126 KB

Статус: проверено DHT
Скачан: торрент - 11 раз, раздача полностью - 0 раз
Размер: 12,47 GB
Оценка:  - (Голосов: 0)
Поблагодарили: 0
Поделиться ссылкой на эту раздачу с друзьями:
В контактеFacebookОдноклассникиTwitterLivejournalМой МирLiveinternet
 

 
Показать сообщения:    


Вы не можете начинать темы
Вы не можете отвечать на сообщения
Вы не можете редактировать свои сообщения
Вы не можете удалять свои сообщения
Вы не можете голосовать в опросах
Вы не можете прикреплять файлы к сообщениям
Вы можете скачивать файлы