Loading...
Error

Скачать Бог войны / God of War / Dang kou feng yun (Гордон Чан) [2017, боевик, история, военный, биография, BDRip] [720p] [DVO (East Dream)]+[Chi]+[Sub Eng] торрент без регистрации

Статистика раздачи
Размер:  7,81 GB   |    Скачан:  60 раз
Сидов:  75  [  0 KB/s  ]   Личеров:  6  [  714 KB/s  ]  

 
 
 
Автор Сообщение

МихаНЕзатор

[] 

Информация о фильме
Название: Бог войны
Оригинальное название: God of War / Dang kou feng yun
Год выхода: 2017
Жанр: боевик, история, военный, биография
Режиссер: Гордон Чан

В ролях: Винсент Чжао, Саммо Хун, Ясуаки Курата, Реджина Вань, Кэйсукэ Койдэ, Тимми Хун, Рю Кохата, Дин Лю, Майкл Тун, Ван Бань

О фильме: 1557 год. Морские разбойники уже несколько десятилетий грабят восточные рубежи Поднебесной. После того, как пираты захватили большой портовый город Цэньган, столичный генштаб посылает на помощь старому полководцу Юй Дао его более молодого и амбициозного коллегу Ци Цзигуана, уверенного в том, что в войне с пиратами можно поставить точку. Для этого необходимы две вещи — железная дисциплина и новая армия.



Страна: Гонконг, Китай
Продолжительность: 02:08:36
Перевод: Любительский (двухголосый закадровый) [East Dream]

Файл
Кодек: x.264
Качество: BDRip 720p
Видео: AVC, 1280x536 (2.40:1), 24.000 fps, 7 000 Kbps (0.425 bit/pixel)
Звук 1: AC-3, 48.0 KHz, 2 ch, 192 Kbps, CBR | Russian
Звук 2: DTS, 48.0 KHz, 6 ch, 1 509 Kbps, CBR | Chinese
Субтитры: английские

АНОНСЫ ПОПУЛЯРНЫХ РАЗДАЧ
Общее
Уникальный идентификатор : 234824499189767691004515159584198245072 (0xB0A98DAFFB89FD54A2F7F42781363AD0)
Полное имя : God of War.2017.720p
Формат : Matroska
Версия формата : Version 4 / Version 2
Размер файла : 7,81 Гбайт
Продолжительность : 2 ч. 8 м.
Общий поток : 8696 Кбит/сек
Дата кодирования : UTC 2017-09-12 21:39:01
Программа кодирования : mkvmerge v8.3.0 64bit
Библиотека кодирования : libebml v1.3.1 + libmatroska v1.4.2

Видео
Идентификатор : 1
Формат : AVC
Формат/Информация : Advanced Video Codec
Профиль формата : High @ L4.1
Параметр CABAC формата : Да
Параметр ReFrames формата : 12 кадров
Идентификатор кодека : V_MPEG4/ISO/AVC
Продолжительность : 2 ч. 8 м.
Битрейт : 7000 Кбит/сек
Ширина : 1280 пикселей
Высота : 536 пикселей
Соотношение сторон : 2,40:1
Режим частоты кадров : Постоянный
Частота кадров : 24,000 кадра/сек
Цветовое пространство : YUV
Субдискретизация насыщенности : 4:2:0
Битовая глубина : 8 бит
Тип развёртки : Прогрессивная
Бит/(Пиксели*Кадры) : 0.425
Размер потока : 6,28 Гбайт (80%)
Библиотека кодирования : x264 core 146 r2538 121396c
Настройки программы : cabac=1 / ref=12 / deblock=1:-2:-2 / analyse=0x3:0x133 / me=umh / subme=10 / psy=1 / psy_rd=1.00:0.00 / mixed_ref=1 / me_range=32 / chroma_me=1 / trellis=2 / 8x8dct=1 / cqm=0 / deadzone=21,11 / fast_pskip=0 / chroma_qp_offset=-2 / threads=12 / lookahead_threads=1 / sliced_threads=0 / nr=0 / decimate=0 / interlaced=0 / bluray_compat=0 / constrained_intra=0 / bframes=6 / b_pyramid=2 / b_adapt=2 / b_bias=0 / direct=3 / weightb=1 / open_gop=0 / weightp=2 / keyint=230 / keyint_min=22 / scenecut=40 / intra_refresh=0 / rc_lookahead=60 / rc=2pass / mbtree=1 / bitrate=7000 / ratetol=1.0 / qcomp=0.60 / qpmin=0 / qpmax=69 / qpstep=4 / cplxblur=20.0 / qblur=0.5 / vbv_maxrate=50000 / vbv_bufsize=50000 / nal_hrd=none / filler=0 / ip_ratio=1.40 / aq=1:1.00
Default : Да
Forced : Нет

Аудио #1
Идентификатор : 2
Формат : AC-3
Формат/Информация : Audio Coding 3
Параметр Endianness формата : Big
Идентификатор кодека : A_AC3
Продолжительность : 2 ч. 8 м.
Вид битрейта : Постоянный
Битрейт : 192 Кбит/сек
Каналы : 2 канала
Расположение каналов : Front: L R
Частота : 48,0 КГц
Частота кадров : 31,250 кадров/сек (1536 spf)
Битовая глубина : 16 бит
Метод сжатия : С потерями
Размер потока : 177 Мбайт (2%)
Заголовок : L2 [East Dream]
Язык : Russian
Default : Да
Forced : Нет

Аудио #2
Идентификатор : 3
Формат : DTS
Формат/Информация : Digital Theater Systems
Режим : 16
Параметр Endianness формата : Big
Идентификатор кодека : A_DTS
Продолжительность : 2 ч. 8 м.
Вид битрейта : Постоянный
Битрейт : 1509 Кбит/сек
Каналы : 6 каналов
Расположение каналов : Front: L C R, Side: L R, LFE
Частота : 48,0 КГц
Частота кадров : 93,750 кадра/сек (512 spf)
Битовая глубина : 24 бит
Метод сжатия : С потерями
Размер потока : 1,36 Гбайт (17%)
Язык : Chinese
Default : Нет
Forced : Нет

Текст
Идентификатор : 4
Формат : UTF-8
Идентификатор кодека : S_TEXT/UTF8
Идентификатор кодека/Информация : UTF-8 Plain Text
Продолжительность : 2 ч. 2 м.
Битрейт : 37 бит/сек
ElementCount : 1538
Размер потока : 33,8 Кбайт (0%)
Язык : English
Default : Да
Forced : Нет




Скачать Бог.войны.God.of.War.Dang.kou.feng.yun.(Гордон.Чан).[2017.боевик.история.военный.биография.BDRip].[720p].[DVO.(East.Dream)]+[Chi]+[Sub.Eng].torrent без регистрации
Золото ЗОЛОТАЯ РАЗДАЧА! СКАЧАННОЕ НЕ ЗАСЧИТЫВАЕТСЯ! Золото
Дата: Зарегистрирован   [ Тип: внешний ] Как тут cкачать?
MAGNET ссылка
MAGNET ссылка


Скачать .torrent

20 KB

Статус: проверено DHT
Скачан: торрент - 60 раз, раздача полностью - 62 раз
Размер: 7,81 GB
Оценка:  5 (Голосов: 1)
Поблагодарили: 4
Поделиться ссылкой на эту раздачу с друзьями:
В контактеFacebookОдноклассникиTwitterLivejournalМой МирLiveinternet
 

 
Показать сообщения:    


Вы не можете начинать темы
Вы не можете отвечать на сообщения
Вы не можете редактировать свои сообщения
Вы не можете удалять свои сообщения
Вы не можете голосовать в опросах
Вы не можете прикреплять файлы к сообщениям
Вы можете скачивать файлы