Loading...
Error

Скачать BBC: Охотники / Охота / The Hunt [S01] (Роб Салливан) [2015, документальный, BDRip] [720p] [DVO]+[Eng] торрент без регистрации

Статистика раздачи
Размер:  27,45 GB   |    Скачан:  4 раза
Сидов:  20  [  0 KB/s  ]   Личеров:  5  [  0 KB/s  ]  

 
 
 
Автор Сообщение

Marsianka

[] 

Информация о фильме
Название: Охотники / Охота
Оригинальное название: The Hunt
Год выхода: 2015
Жанр: документальный
Режиссер: Роб Салливан
В ролях: Дэвид Аттенборо, Дэмиен Буассо

О фильме:
Настоящая драма дикой природы — поединок между хищником и жертвой. Этот новаторский документальный триллер передает накал, психологию и красоту охоты. Вместо привычных кровавых сцен здесь подробно показывают невероятные стратегии хищников и тактики, используемые жертвами ради спасения. Говорят, в природе выживает сильнейший… Сложно поверить, но чаще проигрывают хищники. Причины этих поражений и другие тонкости борьбы за выживание рассматриваются в каждом эпизоде с учетом особенностей среды обитания. Беспощадный климат севера, густые леса, опасный подводный мир, открытые просторы пустыни — каждая экосистема таит свои секреты и ловушки.



Страна: Великобритания
Студия: Silverback Films, British Broadcasting Corporation (BBC)
Продолжительность: ~00:58:00 серия
Перевод: Профессиональный (двухголосый, закадровый) AlexFilm

Релиз:

Файл
Формат: Matroska
Видео: 1280x720 at 25.000 fps, x264@L4.1, ~8000 kbps avg
Аудио#1: Russian: 48 kHz, AC3, 3/2 (L,C,R,l,r) + LFE ch, ~640.00 kbps avg |Двухголосый закадровый, AlexFilm|
Аудио#2: English: 48 kHz, AC3, 3/2 (L,C,R,l,r) + LFE ch, ~640.00 kbps avg
Субтитры: None
***Перевод: Анастасия Кисиленко.
***Монтаж и сведение звука: Михаил Шорыгин.
***Озвучание: Владимир Курдов и Наталья Ланц.
01. Сложнейшая задача / The Hardest Challenge
02. В тисках времен года (Арктика) / In the Grip of the Seasons (Arctic)
03. Прятки (Леса) / Hide and Seek (Forests)
04. Голод в море (Океаны) / Hunger at Sea (Oceans)
05. Нигде не скрыться (Равнины) / Nowhere to Hide (Plains)
06. Гонка на время (Побережья) / Race Against Time (Coasts)
07. Жизнь с хищниками (Заповедник) / Living with Predators (Conservation)
Общее
Уникальный идентификатор : 188811756559536466131150033938034556808 (0x8E0BD253228283E4BFD8BDEAF4397F88)
Полное имя : The.Hunt.s01e05.BDRip.720.Rus.Eng.AlexFilm.mkv
Формат : Matroska
Версия формата : Version 4 / Version 2
Размер файла : 3,65 Гбайт
Продолжительность : 58 м.
Общий поток : 9010 Кбит/сек
Название фильма : The Hunt 1x05 @ AlexFilm
Дата кодирования : UTC 2016-01-31 13:57:17
Программа кодирования : mkvmerge v7.1.0 ('Good Love') 64bit built on Jul 27 2014 13:06:55
Библиотека кодирования : libebml v1.3.0 + libmatroska v1.4.1

Видео
Идентификатор : 1
Формат : AVC
Формат/Информация : Advanced Video Codec
Профиль формата : High@L4.1
Параметр CABAC формата : Да
Параметр ReFrames формата : 9 кадров
Идентификатор кодека : V_MPEG4/ISO/AVC
Продолжительность : 58 м.
Битрейт : 7551 Кбит/сек
Ширина : 1280 пикселей
Высота : 720 пикселей
Соотношение сторон : 16:9
Режим частоты кадров : Постоянный
Частота кадров : 25,000 кадров/сек
Цветовое пространство : YUV
Субдискретизация насыщенности : 4:2:0
Битовая глубина : 8 бит
Тип развёртки : Прогрессивная
Бит/(Пиксели*Кадры) : 0.328
Размер потока : 3,06 Гбайт (84%)
Заголовок : Nowhere.to.Hide
Библиотека кодирования : x264 core 148 r2638kMod 7599210
Настройки программы : cabac=1 / ref=9 / deblock=1:-3:-3 / analyse=0x3:0x133 / me=umh / subme=10 / psy=1 / fade_compensate=0.00 / psy_rd=1.05:0.00 / mixed_ref=1 / me_range=32 / chroma_me=1 / trellis=2 / 8x8dct=1 / cqm=0 / deadzone=21,11 / fast_pskip=1 / chroma_qp_offset=-2 / threads=6 / lookahead_threads=1 / sliced_threads=0 / nr=0 / decimate=0 / interlaced=0 / bluray_compat=0 / constrained_intra=0 / fgo=0 / bframes=8 / b_pyramid=2 / b_adapt=2 / b_bias=0 / direct=3 / weightb=1 / open_gop=0 / weightp=2 / keyint=250 / keyint_min=25 / scenecut=40 / intra_refresh=0 / rc_lookahead=60 / rc=crf / mbtree=0 / crf=16.0000 / qcomp=0.60 / qpmin=0 / qpmax=69 / qpstep=4 / vbv_maxrate=62500 / vbv_bufsize=78125 / crf_max=0.0 / nal_hrd=none / filler=0 / ip_ratio=1.40 / pb_ratio=1.30 / aq=3:0.80 / zones=25,154,crf=12/366,601,crf=12/24736,24801,crf=12/36476,36599,crf=12/63585,63709,crf=12/68604,68816,crf=12/71661,71774,crf=12/85850,86223,crf=12/86873,86943,crf=12
Язык : English
Default : Да
Forced : Нет

Аудио #1
Идентификатор : 2
Формат : AC-3
Формат/Информация : Audio Coding 3
Расширение режима : CM (complete main)
Параметр Endianness формата : Big
Идентификатор кодека : A_AC3
Продолжительность : 58 м.
Вид битрейта : Постоянный
Битрейт : 640 Кбит/сек
Каналы : 6 каналов
Расположение каналов : Front: L C R, Side: L R, LFE
Частота : 48,0 КГц
Метод сжатия : С потерями
Размер потока : 266 Мбайт (7%)
Заголовок : DD5.1 AlexFilm
Язык : Russian
Default : Да
Forced : Нет

Аудио #2
Идентификатор : 3
Формат : AC-3
Формат/Информация : Audio Coding 3
Расширение режима : CM (complete main)
Параметр Endianness формата : Big
Идентификатор кодека : A_AC3
Продолжительность : 58 м.
Вид битрейта : Постоянный
Битрейт : 640 Кбит/сек
Каналы : 6 каналов
Расположение каналов : Front: L C R, Side: L R, LFE
Частота : 48,0 КГц
Метод сжатия : С потерями
Размер потока : 266 Мбайт (7%)
Заголовок : DD5.1 Original
Язык : English
Default : Нет
Forced : Нет




Скачать BBC.Охотники.Охота.The.Hunt.[S01].(Роб.Салливан).[2015.документальный.BDRip].[720p].[DVO]+[Eng].torrent без регистрации
Золото ЗОЛОТАЯ РАЗДАЧА! СКАЧАННОЕ НЕ ЗАСЧИТЫВАЕТСЯ! Золото
Дата: Зарегистрирован   [ Тип: внешний ] Как тут cкачать?
MAGNET ссылка
MAGNET ссылка


Скачать .torrent

70 KB

Статус: проверено DHT
Скачан: торрент - 4 раз, раздача полностью - 0 раз
Размер: 27,45 GB
Оценка:  - (Голосов: 0)
Поблагодарили: 0
Поделиться ссылкой на эту раздачу с друзьями:
В контактеFacebookОдноклассникиTwitterLivejournalМой МирLiveinternet
 

 
Показать сообщения:    


Вы не можете начинать темы
Вы не можете отвечать на сообщения
Вы не можете редактировать свои сообщения
Вы не можете удалять свои сообщения
Вы не можете голосовать в опросах
Вы не можете прикреплять файлы к сообщениям
Вы можете скачивать файлы