Loading...
Error

Скачать Душа моя Мария / Душа мая Марыя (Вячеслав Никифоров) [1993, притча, драма, SATRip] торрент без регистрации

Статистика раздачи
Размер:  744 MB   |    Скачан:  4 раза
Сидов:  2  [  0 KB/s  ]   Личеров:  1  [  0 KB/s  ]  

 
 
 
Автор Сообщение

Marsianka

[] 

Информация о фильме
Название: Душа моя Мария
Оригинальное название: Душа мая Марыя
Год выхода: 1993
Жанр: притча, драма
Режиссер: Вячеслав Никифоров
В ролях: Владимир Самойлов, Алла Хоменко, Александр Самойлов, Анатолий Жук, Татьяна Попова, Владимир Корпусь, Ариадна Никифорова, Артур Шинкович, Пётр Юрченков, Владимир Запасник, Татьяна Ненарокомова

О фильме:
Притча, фантасмагорическая драма по мотивам пьесы Д.Михлеева "И третий ангел вострубил". Об одиноком старике-крестьянине, живущем в зоне катастрофы после чернобыльской аварии.



Страна: Республика Беларусь
Студия: "КАДР—2", "Беларусьфильм"
Продолжительность: 01:17:47
Язык: Русский

Файл
Кодек: XviD
Качество: SATRip
Видео: 640x464 (1.379:1), 25 fps, XviD build 73 ~1198 kbps avg, 0.16 bit/pixel
Звук: 48 kHz, MPEG Layer 3, 2 ch, ~128.00 kbps avg
Субтитры: Отсутствуют

Семпл
General
Complete name : D:Изготовление рипаDysha moya Mariya.SATRip by shkiper.avi
Format : AVI
Format/Info : Audio Video Interleave
File size : 744 MiB
Duration : 1 h 17 min
Overall bit rate : 1 337 kb/s
Writing application : VirtualDubMod 1.5.10.3 | www.virtualdub-fr.org || (build 2550/release)
Writing library : VirtualDubMod build 2550/release

Video
ID : 0
Format : MPEG-4 Visual
Format profile : Advanced Simple@L5
Format settings, BVOP : 1
Format settings, QPel : No
Format settings, GMC : No warppoints
Format settings, Matrix : Custom
Codec ID : XVID
Codec ID/Hint : XviD
Duration : 1 h 17 min
Bit rate : 1 199 kb/s
Width : 640 pixels
Height : 464 pixels
Display aspect ratio : 1.379
Frame rate : 25.000 FPS
Color space : YUV
Chroma subsampling : 4:2:0
Bit depth : 8 bits
Scan type : Progressive
Compression mode : Lossy
Bits/(Pixel*Frame) : 0.161
Stream size : 667 MiB (90%)
Writing library : XviD 73

Audio
ID : 1
Format : MPEG Audio
Format version : Version 1
Format profile : Layer 3
Codec ID : 55
Codec ID/Hint : MP3
Duration : 1 h 17 min
Bit rate mode : Constant
Bit rate : 128 kb/s
Channel(s) : 2 channels
Sampling rate : 48.0 kHz
Compression mode : Lossy
Stream size : 71.2 MiB (10%)
Alignment : Aligned on interleaves
Interleave, duration : 40 ms (1.00 video frame)
Interleave, preload duratio : 504 ms
Writing library : LAME3.99r
Encoding settings : -m s -V 4 -q 2 -lowpass 17 -b 128
Релиз от:




Скачать Душа.моя.Мария.Душа.мая.Марыя.(Вячеслав.Никифоров).[1993.притча.драма.SATRip].torrent без регистрации
Золото ЗОЛОТАЯ РАЗДАЧА! СКАЧАННОЕ НЕ ЗАСЧИТЫВАЕТСЯ! Золото
Дата: Зарегистрирован   [ Тип: внешний ] Как тут cкачать?
MAGNET ссылка
MAGNET ссылка


Скачать .torrent

15 KB

Статус: проверено DHT
Скачан: торрент - 4 раз, раздача полностью - 0 раз
Размер: 744 MB
Оценка:  - (Голосов: 0)
Поблагодарили: 0
Поделиться ссылкой на эту раздачу с друзьями:
В контактеFacebookОдноклассникиTwitterLivejournalМой МирLiveinternet
 

 
Показать сообщения:    


Вы не можете начинать темы
Вы не можете отвечать на сообщения
Вы не можете редактировать свои сообщения
Вы не можете удалять свои сообщения
Вы не можете голосовать в опросах
Вы не можете прикреплять файлы к сообщениям
Вы можете скачивать файлы