Loading...
Error

Скачать Сын председателя / Сын старшыні (Вячеслав Никифоров) [1976, драма, DVB] торрент без регистрации

Статистика раздачи
Размер:  1,51 GB   |    Скачан:  16 раз
Сидов:  1  [  0 KB/s  ]  
 
 
 
Автор Сообщение

Marsianka

[] 

Информация о фильме
Название: Сын председателя / Сын старшыні

Год выхода: 1976
Жанр: драма
Режиссер: Вячеслав Никифоров
В ролях: Александр Самойлов, Владимир Самойлов, Татьяна Алексеева, Бронюс Бабкаускас, Ольга Гаспарова, Михаил Кокшенов, Ирина Мазуркевич, Римма Маркова, Лилита Озолиня, Нина Розанцева, Анатолий Столбов

О фильме:
Всеми уважаемый председатель Яков Русак, уходя на пенсию, выдвигает в качестве преемника своего сына Алексея, окончившего институт и защитившего диссертацию. Однако Русак-младший, по-своему мечтающий о переустройстве своего села, не собирается продолжать традиции отца в руководстве колхозом...





Доп. информация: Запись потока *.ts с наземного цифрового телеканала "Беларусь 3".

Сценарист: Николай Матуковский
Оператор: Виталий Николаев
Композитор: Сергей Кортес
Художники: Евгений Игнатьев, Вячеслав Кубарев
Производство: Беларусьфильм
Премьера: октябрь 1976
Количество зрителей в СССР: 20 200 000

«СПУТНИК КИНОЗРИТЕЛЯ», ОКТЯБРЬ 1976 ГОДА
И в ту самую минуту, когда председатель дотла сожженного фашистами белорусского колхоза вбивал в землю кол, говоря, что на этом месте будет клуб,— в ту самую минуту прискакал на коне какой-то оголец: «Дядя Яша, твоя Полина сына родила!». У председателя колхоза Якова Русака родился сын Алексей. Промелькнут кадры — старые фотографии, на них — крошечный, маленький, растущий, выросший, совсем взрослый Алексей. Как эти кадры, промелькнула и жизнь Якова Русака и пришла пора думать ему о будущем колхоза. Клуб — не клуб, а Дворец культуры — вырос, сын — вырос, вот ему и решил вверить Яков судьбу своего детища. Простой, по мысли старшего Русака, расклад оказался не столь простым для Русака-младшего. У него другое призвание, другие виды на будущее и оставаться — пусть и в родном — колхозе он как-то не предполагал.
Но остался. Конечно же, не из-за того, что отец по отдельности поговорил со всеми членами правления и те согласились: пусть-де парень пообживется, пообвыкнет в колхозе, а потом мы его председателем и поставим.
Если бы знал Яков Русак, чем обернется для него весь этот до тонкостей продуманный план... Ведь есть тонкости, которые не способны учесть никакие хитроумные вычислительные устройства, не то что человек. И одна из них — время, которое меняется быстрее, чем мы успеем к нему приспособиться. То, что вчера в колхозе «Революция» считалось крупной победой, сегодня уже победой не выглядит, те методы работы с людьми, которые могли сгодиться вчера, сегодня уже не годятся. Эту с виду простую истину трудно будет понять Якову Русаку, но она предельно ясна Алексею Русаку. Оказывается, и прекрасный, из стекла и бетона, Дворец культуры, и новые, добротные избы — это еще далеко не все, чем жив человек. Труд хлеборобов колхоза «Революция» порою бывал столь тяжким, что, говоря словами одной героини фильма, не упомнишь, когда в последний раз и книжку читал. Да, такой труд до седьмого пота, до изнеможения, когда люди заменяли машины, потому что машин попросту не существовало, такой труд был суровой необходимостью. Вчера. Сегодня же — зачем надрываться? Только лишь из-за того, что так работать — привычнее, что так — спокойнее и увереннее? Такую логику хозяйствования не может принять Алексей, и уже вроде бы зреет примелькавшийся конфликт отцов и детей, и вызрел бы он и наверняка взорвался бы, не пойми Русак-старший всей неотвратимости процессов, проходящих в современной деревне, не осознай он, что наступило то самое горькое время, когда надо уступить место завтрашнему дню.
Вовсе не для оживления сюжета, как это зачастую случается в фильмах на «производственную тему», вводят авторы в повествование историю трудной любви Алексея и Марины. Авторы фильма не перебирают всех подробностей этого чувства, а лишь пунктирно намечают главные его вехи: любовь — разлука — любовь. Фильм завершится так же, как и начался, семейной фотографией. ..
Виктор Туровский
Давно разыскивается. Представлен впервые в Инете!
Во время трансляции фильма присутствуют полупрозрачные анонсы передач внизу экрана (видно на одном из скринов).

Страна: СССР, Белорусская ССР
Студия: Беларусьфильм
Продолжительность: 01:21:15
Перевод: не требует

Файл
Кодек: AVC (H264)
Качество: DVB
Видео: MPEG4 Video (H264) 720(785)x576 (49:36) 25fps, 2 267 kb/s
Звук: MPEG Audio 48000Hz stereo 256kbps

Семпл

General
ID : 1 (0x1)
Complete name : D:Новая земля 2Художественные фильмыСын председателя (1976)Сын председателя (1976).ts
Format : MPEG-TS
File size : 1.51 GiB
Duration : 1 h 21 min
Overall bit rate mode : Variable
Overall bit rate : 2 657 kb/s
Maximum Overall bit rate : 35.5 Mb/s

Video
ID : 4113 (0x1011)
Menu ID : 1 (0x1)
Format : AVC
Format/Info : Advanced Video Codec
Format profile : Main@L3
Format settings, CABAC : Yes
Format settings, ReFrames : 4 frames
Format settings, GOP : M=4, N=24
Codec ID : 27
Duration : 1 h 21 min
Bit rate mode : Variable
Bit rate : 2 267 kb/s
Maximum bit rate : 40.0 Mb/s
Width : 720 pixels
Height : 576 pixels
Display aspect ratio : 4:3
Frame rate : 25.000 FPS
Standard : PAL
Color space : YUV
Chroma subsampling : 4:2:0
Bit depth : 8 bits
Scan type : MBAFF
Scan type, store method : Interleaved fields
Scan order : Top Field First
Bits/(Pixel*Frame) : 0.219
Stream size : 1.29 GiB (85%)
Color range : Limited
Color primaries : BT.601 PAL
Transfer characteristics : BT.470 System B, BT.470 System G
Matrix coefficients : BT.601

Audio
ID : 4352 (0x1100)
Menu ID : 1 (0x1)
Format : MPEG Audio
Format version : Version 1
Format profile : Layer 2
Codec ID : 4
Duration : 1 h 21 min
Bit rate mode : Constant
Bit rate : 256 kb/s
Channel(s) : 2 channels
Sampling rate : 48.0 kHz
Compression mode : Lossy
Stream size : 149 MiB (10%)
Language : Russian



Скачать Сын.председателя.Сын.старшыні.(Вячеслав.Никифоров).[1976.драма.DVB].torrent без регистрации
Золото ЗОЛОТАЯ РАЗДАЧА! СКАЧАННОЕ НЕ ЗАСЧИТЫВАЕТСЯ! Золото
Дата: Зарегистрирован   [ Тип: внутренний ] Как тут cкачать?
MAGNET ссылка
MAGNET ссылка


Скачать .torrent

17 KB

Статус: проверено DHT
Скачан: торрент - 16 раз, раздача полностью - 0 раз
Размер: 1,51 GB
Оценка:  - (Голосов: 0)
Поблагодарили: 0
Поделиться ссылкой на эту раздачу с друзьями:
В контактеFacebookОдноклассникиTwitterLivejournalМой МирLiveinternet
 

 
Показать сообщения:    


Вы не можете начинать темы
Вы не можете отвечать на сообщения
Вы не можете редактировать свои сообщения
Вы не можете удалять свои сообщения
Вы не можете голосовать в опросах
Вы не можете прикреплять файлы к сообщениям
Вы можете скачивать файлы