Loading...
Error

Скачать Реллик / Rellik (Сезон 01) (Сэм Миллер) [2017, криминал, WEBRip] [MVO] (AlexFilm) торрент без регистрации

Статистика раздачи
Размер:  4,01 GB   |    Скачан:  22 раза
Сидов:  11  [  0 KB/s  ]   Личеров:  4  [  0 KB/s  ]  

 
 
 
Автор Сообщение

leon030982

[] 

Реллик / Rellik

[img=right]
Год выпуска: 2017
Страна: США
Жанр: Криминал
Продолжительность: ~01:00:00
Озвучание: Профессиональное (многоголосое, закадровое) (AlexFilm)

Режиссер: Сэм Миллер, Ханс Херботс

В ролях: Рис Ричи, Джоди Бальфур, Киран Бью, Peter Coe, Ричард Дормер, Александр Джиллисон, Tuncay Gunes, Сьюзэн Хьюз, Джозеф Макнаб, Лерке Винтер Андерсен и др.

Описание: История серийного убийцы, рассказанная задом наперед. Сериал начинается с момента, когда подозреваемый уже пойман, и действие разворачивается вспять, приводя к самим преступлениям и постепенно раскрывая личность настоящего убийцы. В центре расследования стоит одержимый детектив, чье лицо было обезображено кислотой. Чем дальше история заходит в прошлое, тем больше ответов появляется на главный вопрос: «Что движет нами и превращает в тех, кто мы есть?»

Релиз:

Перевод: Александр Лазарев
Монтаж и сведение звука: Михаил Суслов, Михаил Шорыгин
Роли озвучивали:Евгения Тихонова
Екатерина Муравицкая
Константин Погодаев
Кирилл Патрино
Константин Федосеев
Михаил Суслов



Качество: WEBRip
Формат: AVI
Видео: 720x400 (16:9), 23.976 fps, XviD ~1420 kbps avg, 0.186 bit/pixel
Аудио Rus: 48 kHz, MPEG Layer 3, 2 ch, ~128.00 kbps avg
Аудио Eng: 48 kHz, MPEG Layer 3, 2 ch, ~128.00 kbps avg
Субтитры: нет

Добавлена 6-я серия!
Формат : AVI
Формат/Информация : Audio Video Interleave
Размер файла : 680 Мбайт
Продолжительность : 56 м. 49 с.
Общий поток : 1673 Кбит/сек
Название фильма : Rellik 1x01 @ AlexFilm
Программа кодирования : VirtualDubMod 1.5.10.2 (build 2540/release)
Библиотека кодирования : VirtualDubMod build 2540/release

Видео
Идентификатор : 0
Формат : MPEG-4 Visual
Профиль формата : Advanced Simple@L5
Параметр BVOP формата : Нет
Параметр QPel формата : Нет
Параметр GMC формата : Без точки перехода
Параметр матрицы формата : Default (MPEG)
Идентификатор кодека : XVID
Идентификатор кодека/Подсказка : XviD
Продолжительность : 56 м. 49 с.
Битрейт : 1403 Кбит/сек
Ширина : 720 пикселей
Высота : 400 пикселей
Соотношение сторон : 16:9
Частота кадров : 23,976 (23976/1000) кадра/сек
Цветовое пространство : YUV
Субдискретизация насыщенности : 4:2:0
Битовая глубина : 8 бит
Тип развёртки : Прогрессивная
Метод сжатия : С потерями
Бит/(Пиксели*Кадры) : 0.203
Размер потока : 570 Мбайт (84%)
Библиотека кодирования : XviD 73

Аудио #1
Идентификатор : 1
Формат : MPEG Audio
Версия формата : Version 1
Профиль формата : Layer 3
Режим : Joint stereo
Идентификатор кодека : 55
Идентификатор кодека/Подсказка : MP3
Продолжительность : 56 м. 49 с.
Вид битрейта : Постоянный
Битрейт : 128 Кбит/сек
Каналы : 2 канала
Частота : 48,0 КГц
Метод сжатия : С потерями
Размер потока : 52,0 Мбайт (8%)
Выравнивание : Соединение по промежуткам
Продолжительность промежутка : 42 мс. (1,00 видеокадр)
Время предзагрузки промежутка : 504 мс.
Заголовок : Russian (AlexFilm)
Библиотека кодирования : LAME3.99r
Настройки программы : -m j -V 4 -q 3 -lowpass 18 -b 128

Аудио #2
Идентификатор : 2
Формат : MPEG Audio
Версия формата : Version 1
Профиль формата : Layer 3
Режим : Joint stereo
Расширение режима : MS Stereo
Идентификатор кодека : 55
Идентификатор кодека/Подсказка : MP3
Продолжительность : 56 м. 49 с.
Вид битрейта : Постоянный
Битрейт : 128 Кбит/сек
Каналы : 2 канала
Частота : 48,0 КГц
Метод сжатия : С потерями
Размер потока : 52,0 Мбайт (8%)
Выравнивание : Соединение по промежуткам
Продолжительность промежутка : 42 мс. (1,00 видеокадр)
Время предзагрузки промежутка : 504 мс.
Заголовок : English
Когда раздача ведётся путём добавления новых серий, при каждом добавлении создётся новый торрент. Чтобы начать докачку новой серии, пользователям необходимо сделать следующее:
(1) остановить скачивание,
(2) удалить старый торрент у себя из клиента (старые серии удалять не надо),
(3) скачать новый торрент и запустить его у себя в клиенте вместо старого, при этом указать клиенту путь в старую папку, куда и должно происходить скачивание новых серий.
Ваш клиент при этом должен произвести хеширование (проверку) старой папки (если не производит сам - помогите ему сделать это), и будет докачивать только те серии, которых у вас ещё нет. Старые серии при этом не удаляются, а продолжают раздаваться!
Eсли вы уже удалили старые серии, то предотвратить повторную закачку старых серий можно, отжав галочку в соответсвующих местах при запуске нового торрента. По возможности, желательно не удалять старые серии как можно дольше, чтобы релизёр не столько продолжал раздавать старые серии, а смог сконцентрироваться на новых.




Скачать Реллик.Rellik.(Сезон.01).(Сэм.Миллер).[2017.криминал.WEBRip].[MVO].(AlexFilm).torrent без регистрации
Золото ЗОЛОТАЯ РАЗДАЧА! СКАЧАННОЕ НЕ ЗАСЧИТЫВАЕТСЯ! Золото
Дата: Зарегистрирован   [ Тип: внешний ] Как тут cкачать?
MAGNET ссылка
MAGNET ссылка


Скачать .torrent

11 KB

Статус: проверено DHT
Скачан: торрент - 22 раз, раздача полностью - 7 раз
Размер: 4,01 GB
Оценка:  - (Голосов: 0)
Поблагодарили: 0
Поделиться ссылкой на эту раздачу с друзьями:
В контактеFacebookОдноклассникиTwitterLivejournalМой МирLiveinternet
 

 
Показать сообщения:    


Вы не можете начинать темы
Вы не можете отвечать на сообщения
Вы не можете редактировать свои сообщения
Вы не можете удалять свои сообщения
Вы не можете голосовать в опросах
Вы не можете прикреплять файлы к сообщениям
Вы можете скачивать файлы