Loading...
Error

Скачать Американский Вандал / American Vandal (Сезон 01, серии 01-03 из 08) (Тони Ясенда) [2017, Комедия, WEB-DL] [720p] [DVO] (Кубик в Кубе) торрент без регистрации

Статистика раздачи
Размер:  2,57 GB   |    Скачан:  25 раз
Сидов:  1  [  0 KB/s  ]  

 
 
 
Автор Сообщение

leon030982

[] 

Американский Вандал / American Vandal


Год выхода: 2017
Жанр: Комедия
Выпущено: США
Продолжительность: 00:35:00
Перевод: Профессиональный двухголосый закадровый (Кубик в Кубе)

Режиссёр: Тони Ясенда

В ролях: Тайлер Альварес, Гриффин Глюк, Джимми Татро, Камил Гайд, Эдуардо Франко, Лукас Гейдж.

Описание: Дерзкая пародия на документальные криминальные программы, с пафосом воссоздающие громкие преступления. Итак, школа в шоке: кто-то нарисовал гигантские члены на 27 автомобилях на местной парковке. Главный подозреваемый — местный хулиган, помешанный на рисовании пенисов. Однако правда ли это он или его пытаются подставить? «Дело не в членах, дело в справедливости», — говорит один из героев этой леденящей душу истории.




Работа со звуком: messafan

Качество: WEB-DL 720p
Формат: MKV
Видео: 1280x720 at 23.976 fps, MPEG-4 AVC, ~2600 kbps avg
Аудио #1: Russian: 48 kHz, AC3, 3/2 (L,C,R,l,r) + LFE ch, ~384.00 kbps avg |KvK|
Аудио #2: English: 48 kHz, AC3, 3/2 (L,C,R,l,r) + LFE ch, ~384.00 kbps avg
Субтитры: English
General
Unique ID : 191864634486229210430354756032585506931 (0x9057C8D3D9EDD6288934AFD32667A073)
Complete name : E:\American.Vandal.S01.720p.WEB-DL.KvK.CasStudio.TV\American.Vandal.S01E01.Hard.Facts.Vandalism.and.Vulgarity.720p.WEB-DL.KvK.CasStudio.TV.mkv
Format : Matroska
Format version : Version 4 / Version 2
File size : 856 MiB
Duration : 35mn 36s
Overall bit rate mode : Variable
Overall bit rate : 3 361 Kbps
Movie name : Making History 01x09 (Body Trouble) - release by messafan for CasStudio.TV
Encoded date : UTC 2017-09-19 08:33:16
Writing application : mkvmerge v6.7.0 ('Back to the Ground') 64bit built on Jan 8 2014 15:10:52
Writing library : libebml v1.3.0 + libmatroska v1.4.1

Video
ID : 1
Format : AVC
Format/Info : Advanced Video Codec
Format profile : Main@L3.1
Format settings, CABAC : Yes
Format settings, ReFrames : 3 frames
Codec ID : V_MPEG4/ISO/AVC
Duration : 35mn 36s
Bit rate mode : Variable
Bit rate : 2 526 Kbps
Nominal bit rate : 2 740 Kbps
Maximum bit rate : 4 110 Kbps
Width : 1 280 pixels
Height : 720 pixels
Display aspect ratio : 16:9
Frame rate mode : Constant
Frame rate : 23.976 fps
Color space : YUV
Chroma subsampling : 4:2:0
Bit depth : 8 bits
Scan type : Progressive
Bits/(Pixel*Frame) : 0.114
Stream size : 643 MiB (75%)
Writing library : x264 core 118
Encoding settings : cabac=1 / ref=3 / deblock=1:0:0 / analyse=0x1:0x111 / me=umh / subme=10 / psy=1 / psy_rd=1.00:0.00 / mixed_ref=1 / me_range=24 / chroma_me=1 / trellis=2 / 8x8dct=0 / cqm=0 / deadzone=21,11 / fast_pskip=1 / chroma_qp_offset=-2 / threads=6 / sliced_threads=0 / nr=0 / decimate=1 / interlaced=0 / bluray_compat=0 / constrained_intra=0 / bframes=2 / b_pyramid=0 / b_adapt=2 / b_bias=0 / direct=3 / weightb=1 / open_gop=0 / weightp=2 / keyint=48 / keyint_min=25 / scenecut=0 / intra_refresh=0 / rc_lookahead=0 / rc=2pass / mbtree=1 / bitrate=2740 / ratetol=1.0 / qcomp=0.50 / qpmin=6 / qpmax=51 / qpstep=4 / cplxblur=20.0 / qblur=0.5 / vbv_maxrate=4110 / vbv_bufsize=5480 / nal_hrd=vbr / ip_ratio=1.40 / aq=1:1.00
Default : Yes
Forced : No

Audio #1
ID : 2
Format : AC-3
Format/Info : Audio Coding 3
Mode extension : CM (complete main)
Format settings, Endianness : Big
Codec ID : A_AC3
Duration : 35mn 36s
Bit rate mode : Constant
Bit rate : 384 Kbps
Channel(s) : 6 channels
Channel positions : Front: L C R, Side: L R, LFE
Sampling rate : 48.0 KHz
Compression mode : Lossy
Stream size : 97.8 MiB (11%)
Title : KvK 5.1
Language : Russian
Default : Yes
Forced : No

Audio #2
ID : 3
Format : AC-3
Format/Info : Audio Coding 3
Mode extension : CM (complete main)
Format settings, Endianness : Big
Codec ID : A_AC3
Duration : 35mn 36s
Bit rate mode : Constant
Bit rate : 384 Kbps
Channel(s) : 6 channels
Channel positions : Front: L C R, Side: L R, LFE
Sampling rate : 48.0 KHz
Compression mode : Lossy
Stream size : 97.8 MiB (11%)
Title : English 5.1
Language : English
Default : No
Forced : No

Text #1
ID : 4
Format : UTF-8
Codec ID : S_TEXT/UTF8
Codec ID/Info : UTF-8 Plain Text
Title : Eng Forced
Language : English
Default : No
Forced : No

Text #2
ID : 5
Format : UTF-8
Codec ID : S_TEXT/UTF8
Codec ID/Info : UTF-8 Plain Text
Title : SDH
Language : English
Default : No
Forced : No

Когда раздача ведётся путём добавления новых серий, при каждом добавлении создётся новый торрент. Чтобы начать докачку новой серии, пользователям необходимо сделать следующее:
(1) остановить скачивание,
(2) удалить старый торрент у себя из клиента (старые серии удалять не надо),
(3) скачать новый торрент и запустить его у себя в клиенте вместо старого, при этом указать клиенту путь в старую папку, куда и должно происходить скачивание новых серий.
Ваш клиент при этом должен произвести хеширование (проверку) старой папки (если не производит сам - помогите ему сделать это), и будет докачивать только те серии, которых у вас ещё нет. Старые серии при этом не удаляются, а продолжают раздаваться!
Eсли вы уже удалили старые серии, то предотвратить повторную закачку старых серий можно, отжав галочку в соответсвующих местах при запуске нового торрента. По возможности, желательно не удалять старые серии как можно дольше, чтобы релизёр не столько продолжал раздавать старые серии, а смог сконцентрироваться на новых.




Скачать Американский.Вандал.American.Vandal.(Сезон.01.серии.01-03.из.08).(Тони.Ясенда).[2017.Комедия.WEB-DL].[720p].[DVO].(Кубик.в.Кубе).torrent без регистрации
Золото ЗОЛОТАЯ РАЗДАЧА! СКАЧАННОЕ НЕ ЗАСЧИТЫВАЕТСЯ! Золото
Дата: Зарегистрирован   [ Тип: внутренний ] Как тут cкачать?
MAGNET ссылка
MAGNET ссылка


Скачать .torrent

14 KB

Статус: проверено DHT
Скачан: торрент - 25 раз, раздача полностью - 19 раз
Размер: 2,57 GB
Оценка:  - (Голосов: 0)
Поблагодарили: 1
Поделиться ссылкой на эту раздачу с друзьями:
В контактеFacebookОдноклассникиTwitterLivejournalМой МирLiveinternet
 

 
Показать сообщения:    


Вы не можете начинать темы
Вы не можете отвечать на сообщения
Вы не можете редактировать свои сообщения
Вы не можете удалять свои сообщения
Вы не можете голосовать в опросах
Вы не можете прикреплять файлы к сообщениям
Вы можете скачивать файлы