Loading...
Error

Скачать Электрические сны Филипа К. Дика / Philip K. Dick's Electric Dream (Сезон 01, серии 01-02 из 10) (Майкл Диннер, Дэвид Фарр, Франческа Грегорини, Том Харпер, Питер Хортон) [2017, драма, фантастика, WEB-DLRip] [MVO] (Amedia) торрент без регистрации

Статистика раздачи
Размер:  1,22 GB   |    Скачан:  27 раз

Полного источника не было: 26 минут


 
 
 
Автор Сообщение

leon030982

[] 

Электрические сны Филипа К. Дика / Philip K. Dick's Electric Dream



Год выпуска: 2017
Страна: США, Великобритания, Channel 4, Sony Pictures Television
Жанр: драма, фантастика
Продолжительность: 1х ~ 00:55:00
Перевод: Профессиональный (многоголосый) *Amedia*

Режиссёры: Майкл Диннер, Дэвид Фарр, Франческа Грегорини, Том Харпер, Питер Хортон

В ролях: Брайан Крэнстон, Стив Бушеми, Вера Фармига, Мирей Инос, Грег Киннир, Тимоти Сполл, Бенедикт Вонг, Холлидей Грейнджер, Ричард Мэдден, Лара Пулвер

Описание: Сериал-антология. Сборник экранизаций научно-фантастических рассказов знаменитого писателя Филипа К. Дика.



Качество: WEB-DLRip
Формат: AVI
Видео: XvID, 720x400, 25,000 fps, ~1517 Kbps
Аудио: AC3, 48.0 kHz, 2 channels, 192 kb/s
Субтитры: нет

Добавлена 2-я серия
Внимание! Раздача ведётся путём добавления новых серий - по мере выхода серий, раздача будет обновляться, и при каждом добавлении создаваться новый торрент.
Чтобы начать докачку новой серии, пользователям необходимо:
1. Остановить скачивание.
2. Удалить старый торрент у себя из клиента (старые серии удалять не надо).
3. Скачать новый торрент и запустить его у себя в клиенте вместо старого, при этом указать клиенту путь в старую папку куда и должно происходить скачивание новых серий.

Ваш клиент при этом должен произвести хеширование (проверку) старой папки (если не производит сам - помогите ему сделать это), и будет докачивать только те серии которых у вас ещё нет. Старые серии при этом не удаляются, а продолжают раздаваться. Eсли вы уже удалили старые серии, то предотвратить повторную закачку старых серий можно отжав галочку в соответствующих местах при запуске нового торрента. По возможности, желательно не удалять старые серии как можно дольше, чтобы релизер не столько продолжал раздавать старые серии, сколько мог сконцентрироваться на новых.
General
Complete name : E:\Philip K. Dick's Electric Dreams.s01e01.WEBDLRip.Amedia.avi
Format : AVI
Format/Info : Audio Video Interleave
File size : 643 MiB
Duration : 52mn 6s
Overall bit rate : 1 725 Kbps
Writing application : VirtualDubMod 1.5.10.3 | www.virtualdub-fr.org || (build 2550/release)
Writing library : VirtualDubMod build 2550/release

Video
ID : 0
Format : MPEG-4 Visual
Format profile : Advanced Simple@L5
Format settings, BVOP : 4
Format settings, QPel : No
Format settings, GMC : No warppoints
Format settings, Matrix : Default (MPEG)
Codec ID : XVID
Codec ID/Hint : XviD
Duration : 52mn 6s
Bit rate : 1 456 Kbps
Width : 720 pixels
Height : 400 pixels
Display aspect ratio : 16:9
Frame rate : 25.000 fps
Color space : YUV
Chroma subsampling : 4:2:0
Bit depth : 8 bits
Scan type : Progressive
Compression mode : Lossy
Bits/(Pixel*Frame) : 0.202
Stream size : 543 MiB (84%)
Writing library : XviD 1.2.1 (UTC 2008-12-04)

Audio
ID : 1
Format : AC-3
Format/Info : Audio Coding 3
Mode extension : CM (complete main)
Format settings, Endianness : Big
Codec ID : 2000
Duration : 52mn 6s
Bit rate mode : Constant
Bit rate : 192 Kbps
Channel(s) : 2 channels
Channel positions : Front: L R
Sampling rate : 48.0 KHz
Compression mode : Lossy
Stream size : 71.6 MiB (11%)
Alignment : Split accross interleaves




Скачать Электрические.сны.Филипа.К.Дика.Philip.K.Dick's.Electric.Dream.(Сезон.01.серии.01-02.из.10).(Майкл.Диннер.Дэвид.Фарр.Франческа.Грегорини.Том.Харпер.Питер.Хортон).[2017.драма.фантастика.WEB-DLRip].[MVO].(Amedia).torrent без регистрации
Золото ЗОЛОТАЯ РАЗДАЧА! СКАЧАННОЕ НЕ ЗАСЧИТЫВАЕТСЯ! Золото
Дата: Зарегистрирован   [ Тип: внутренний ] Как тут cкачать?
MAGNET ссылка
MAGNET ссылка


Скачать .torrent

13 KB

Статус: проверено DHT
Скачан: торрент - 27 раз, раздача полностью - 23 раз
Размер: 1,22 GB
Оценка:  - (Голосов: 0)
Поблагодарили: 0
Поделиться ссылкой на эту раздачу с друзьями:
В контактеFacebookОдноклассникиTwitterLivejournalМой МирLiveinternet
 

 
Показать сообщения:    


Вы не можете начинать темы
Вы не можете отвечать на сообщения
Вы не можете редактировать свои сообщения
Вы не можете удалять свои сообщения
Вы не можете голосовать в опросах
Вы не можете прикреплять файлы к сообщениям
Вы можете скачивать файлы