Loading...
Error

Скачать Двойка / The Deuce (Сезон 01, серии 01-05 из 08) (Джеймс Франко, Мишель МакЛарен, Ута Бризвитц) [2017, драма, WEBRip] [1080p] [MVO] (Jaskier) торрент без регистрации

Статистика раздачи
Размер:  31,98 GB   |    Скачан:  17 раз
Сидов:  1  [  0 KB/s  ]  

 
 
 
Автор Сообщение

leon030982

[] 

Двойка / The Deuce


Год выпуска: 2017
Страна: США
Жанр: драма
Продолжительность: 01:25:15
Перевод: Профессиональный (многоголосый закадровый) *Jaskier*
Субтитры: английские

Режиссёр: Джеймс Франко, Мишель МакЛарен, Ута Бризвитц

В ролях: Джеймс Франко, Мэгги Джилленхол, Гари Карр, Маргарита Левиева, Лоуренс Гиллиард мл., Доминик Фишбэк, Эмили Мид, Гбенга Акиннагбе, Кристофер Бауэр и др.

Описание: Сериал рассказывает о жизни Нью-Йорка в 1970–1980 гг., когда порнография и проституция были широко распространены в этот период времени на Манхэттене.



Качество: WEBRip 1080p
Формат: MKV
Видео: 1920x1080 (16:9) | X264 | ~14000 kbps | 23.976 fps
Аудио: AC3 | 48 KHz | 5.1 (Front: L С R Side: L R) + LFE | ~384 kbps - Rus
Аудио: AC3 | 48 KHz | 5.1 (Front: L С R Side: L R) + LFE | ~384 kbps - Eng
Общее
Уникальный идентификатор : 201639719522601917156503500671597581024 (0x97B265BABCDE8C02A26682F1AFCE92E0)
Полное имя : D:\Загрузки\The Deuce. Season 1 (WEBRip l 1080p l Jaskier)\The.Deuce.S01E01.1080p.AMZN.WEBRip.DD5.1.x264-Jaskier.mkv
Формат : Matroska
Версия формата : Version 2
Размер файла : 8,51 Гбайт
Продолжительность : 1 ч. 24 м.
Режим общего битрейта : Переменный
Общий поток : 14,4 Мбит/сек
Дата кодирования : UTC 2017-09-21 18:54:37
Программа кодирования : mkvmerge v7.8.0 ('River Man') 32bit built on Apr 3 2015 12:11:22
Библиотека кодирования : libebml v1.3.1 + libmatroska v1.4.2

Видео
Идентификатор : 1
Формат : AVC
Формат/Информация : Advanced Video Codec
Профиль формата : High@L4
Параметр CABAC формата : Да
Параметр ReFrames формата : 4 кадра
Идентификатор кодека : V_MPEG4/ISO/AVC
Продолжительность : 1 ч. 24 м.
Вид битрейта : Переменный
Битрейт : 13,3 Мбит/сек
Максимальный битрейт : 15,0 Мбит/сек
Ширина : 1920 пикселей
Высота : 1080 пикселей
Соотношение сторон : 16:9
Режим частоты кадров : Постоянный
Частота кадров : 23,976 (24000/1001) кадра/сек
Цветовое пространство : YUV
Субдискретизация насыщенности : 4:2:0
Битовая глубина : 8 бит
Тип развёртки : Прогрессивная
Бит/(Пиксели*Кадры) : 0.268
Размер потока : 7,89 Гбайт (93%)
Язык : English
Default : Да
Forced : Нет
Цветовой диапазон : Limited
Основные цвета : BT.709
Характеристики трансфера : BT.709
Коэффициенты матрицы : BT.709

Аудио #1
Идентификатор : 2
Формат : AC-3
Формат/Информация : Audio Coding 3
Параметр Endianness формата : Big
Идентификатор кодека : A_AC3
Продолжительность : 1 ч. 24 м.
Вид битрейта : Постоянный
Битрейт : 384 Кбит/сек
Каналы : 6 каналов
Расположение каналов : Front: L C R, Side: L R, LFE
Частота : 48,0 КГц
Частота кадров : 31,250 кадров/сек (1536 spf)
Битовая глубина : 16 бит
Метод сжатия : С потерями
Размер потока : 233 Мбайт (3%)
Заголовок : Jaskier
Язык : Russian
ServiceKind/String : Complete Main
Default : Да
Forced : Нет

Аудио #2
Идентификатор : 3
Формат : AC-3
Формат/Информация : Audio Coding 3
Параметр Endianness формата : Big
Идентификатор кодека : A_AC3
Продолжительность : 1 ч. 24 м.
Вид битрейта : Постоянный
Битрейт : 384 Кбит/сек
Каналы : 6 каналов
Расположение каналов : Front: L C R, Side: L R, LFE
Частота : 48,0 КГц
Частота кадров : 31,250 кадров/сек (1536 spf)
Битовая глубина : 16 бит
Метод сжатия : С потерями
Размер потока : 233 Мбайт (3%)
Язык : English
ServiceKind/String : Complete Main
Default : Нет
Forced : Нет

Текст
Идентификатор : 4
Формат : UTF-8
Идентификатор кодека : S_TEXT/UTF8
Идентификатор кодека/Информация : UTF-8 Plain Text
Язык : English
Default : Нет
Forced : Нет
Когда раздача ведётся путём добавления новых серий, при каждом добавлении создётся новый торрент. Чтобы начать докачку новой серии, пользователям необходимо сделать следующее:
(1) остановить скачивание,
(2) удалить старый торрент у себя из клиента (старые серии удалять не надо),
(3) скачать новый торрент и запустить его у себя в клиенте вместо старого, при этом указать клиенту путь в старую папку, куда и должно происходить скачивание новых серий.
Ваш клиент при этом должен произвести хеширование (проверку) старой папки (если не производит сам - помогите ему сделать это), и будет докачивать только те серии, которых у вас ещё нет. Старые серии при этом не удаляются, а продолжают раздаваться!
Eсли вы уже удалили старые серии, то предотвратить повторную закачку старых серий можно, отжав галочку в соответсвующих местах при запуске нового торрента. По возможности, желательно не удалять старые серии как можно дольше, чтобы релизёр не столько продолжал раздавать старые серии, а смог сконцентрироваться на новых.




Скачать Двойка.The.Deuce.(Сезон.01.серии.01-05.из.08).(Джеймс.Франко.Мишель.МакЛарен.Ута.Бризвитц).[2017.драма.WEBRip].[1080p].[MVO].(Jaskier).torrent без регистрации
Золото ЗОЛОТАЯ РАЗДАЧА! СКАЧАННОЕ НЕ ЗАСЧИТЫВАЕТСЯ! Золото
Дата: Зарегистрирован   [ Тип: внутренний ] Как тут cкачать?
MAGNET ссылка
MAGNET ссылка


Скачать .torrent

161 KB

Статус: проверено DHT
Скачан: торрент - 17 раз, раздача полностью - 1 раз
Размер: 31,98 GB
Оценка:  - (Голосов: 0)
Поблагодарили: 0
Поделиться ссылкой на эту раздачу с друзьями:
В контактеFacebookОдноклассникиTwitterLivejournalМой МирLiveinternet
 

 
Показать сообщения:    


Вы не можете начинать темы
Вы не можете отвечать на сообщения
Вы не можете редактировать свои сообщения
Вы не можете удалять свои сообщения
Вы не можете голосовать в опросах
Вы не можете прикреплять файлы к сообщениям
Вы можете скачивать файлы