Loading...
Error

Скачать Еще одна пятница / Friday After Next (Маркус Рэбой) [2002, комедия, драма, WEB-DL] [1080p] [MVO]x2+[Eng]+[Sub Eng] торрент без регистрации

Статистика раздачи
Размер:  8,93 GB   |    Скачан:  11 раз

Полного источника не было: 19 минут

 
 
 
Автор Сообщение

Marsianka

[] 

Информация о фильме
Название: Еще одна пятница
Оригинальное название: Friday After Next
Год выхода: 2002
Жанр: комедия, драма
Режиссер: Маркус Рэбой / Marcus Raboy
В ролях: Айс Кьюб, Майк Эппс, Джон Уизерспун, Дон «Д.С.» Керри, Анна Мария Хорсфорд, Клифтон Пауэлл, К.Д. Обер, Бебе Дрэйк, Кэт Уильямс, Рики Смайли

О фильме:
Третье продолжение известной и уже полюбившейся многим комедии. Действия разворачиваются во время Рождества. Хотя кузены Крейг и Дэй-дэй уехали от своих родителей, они живут в одной квартире, где постоянно царит дух бесшабашного веселья и вечного праздника.

Но тут, на фоне их умиротворенного предпраздничного настроения появляется Санта-Клаус, который не только похищает все рождественские подарки, но и не забывает прихватить еще и деньги на оплату квартиры, спрятанные в стереодинамиках.

Столкнувшись с проблемой выселения на улицу и вообще напрочь испорченного рождественского настроения, ребята решают не дать злополучному Санте и всем другим несчастливым обстоятельствам помешать им веселиться в свой любимый праздник.


Страна: США
Студия: Avery Pix, Cube Vision, New Line Cinema
Продолжительность: 01:24:27
Перевод: Перевод: Профессиональный (многоголосый закадровый) Премьер
Перевод 2: Профессиональный (многоголосый закадровый)

Файл
Кодек: h.264
Качество: WEB-DL 1080p
Видео: 1920x1080, 16:9, 13700 kbps, 23.976 fps

Аудио: Русский / многоголосый закадровый (Премьер), 6 ch, 48 KHz, 384 kbps
Аудио 2: Русский / многоголосый закадровый, 6 ch, 48 KHz, 384 kbps
Аудио 3: Английский, 6 ch, 48 KHz, 640 kbps
Субтитры: Английские (SRT)
Семпл

General
Unique ID : 226713959649642753375330792310705255630 (0xAA8F8536F7A1E46CBE7E3BDE502074CE)
Complete name : D:DownloadsFriday.After.Next.2002.WEB-DL.1080p.mkv
Format : Matroska
Format version : Version 4 / Version 2
File size : 8.93 GiB
Duration : 1 h 24 min
Overall bit rate mode : Variable
Overall bit rate : 15.1 Mb/s
Encoded date : UTC 2017-09-21 19:03:49
Writing application : mkvmerge v15.0.0 ('Duel with the Devil') 64-bit
Writing library : libebml v1.3.5 + libmatroska v1.4.5

Video
ID : 1
Format : AVC
Format/Info : Advanced Video Codec
Format profile : High@L4
Format settings, CABAC : Yes
Format settings, ReFrames : 4 frames
Codec ID : V_MPEG4/ISO/AVC
Duration : 1 h 24 min
Bit rate mode : Variable
Bit rate : 13.7 Mb/s
Maximum bit rate : 15.0 Mb/s
Width : 1 920 pixels
Height : 1 080 pixels
Display aspect ratio : 16:9
Frame rate mode : Constant
Frame rate : 23.976 (24000/1001) FPS
Color space : YUV
Chroma subsampling : 4:2:0
Bit depth : 8 bits
Scan type : Progressive
Bits/(Pixel*Frame) : 0.276
Stream size : 8.10 GiB (91%)
Default : Yes
Forced : No
Color range : Limited
Color primaries : BT.709
Transfer characteristics : BT.709
Matrix coefficients : BT.709

Audio #1
ID : 2
Format : AC-3
Format/Info : Audio Coding 3
Format settings, Endianness : Big
Codec ID : A_AC3
Duration : 1 h 24 min
Bit rate mode : Constant
Bit rate : 384 kb/s
Channel(s) : 6 channels
Channel positions : Front: L C R, Side: L R, LFE
Sampling rate : 48.0 kHz
Frame rate : 31.250 FPS (1536 spf)
Bit depth : 16 bits
Compression mode : Lossy
Stream size : 232 MiB (3%)
Title : Многоголосый закадровый | Премьер
Language : Russian
Service kind : Complete Main
Default : Yes
Forced : No

Audio #2
ID : 3
Format : AC-3
Format/Info : Audio Coding 3
Format settings, Endianness : Big
Codec ID : A_AC3
Duration : 1 h 24 min
Bit rate mode : Constant
Bit rate : 384 kb/s
Channel(s) : 6 channels
Channel positions : Front: L C R, Side: L R, LFE
Sampling rate : 48.0 kHz
Frame rate : 31.250 FPS (1536 spf)
Bit depth : 16 bits
Compression mode : Lossy
Stream size : 232 MiB (3%)
Title : Многоголосый закадровый
Language : Russian
Service kind : Complete Main
Default : No
Forced : No

Audio #3
ID : 4
Format : E-AC-3
Format/Info : Enhanced Audio Coding 3
Format settings, Endianness : Big
Codec ID : A_EAC3
Duration : 1 h 24 min
Bit rate mode : Constant
Bit rate : 640 kb/s
Channel(s) : 6 channels
Channel positions : Front: L C R, Side: L R, LFE
Sampling rate : 48.0 kHz
Frame rate : 187.500 FPS (256 spf)
Compression mode : Lossy
Stream size : 387 MiB (4%)
Language : English
Service kind : Complete Main
Default : No
Forced : No

Text
ID : 5
Format : UTF-8
Codec ID : S_TEXT/UTF8
Codec ID/Info : UTF-8 Plain Text
Duration : 1 h 19 min
Bit rate : 98 b/s
Count of elements : 2022
Stream size : 57.7 KiB (0%)
Language : English
Default : No
Forced : No



Скачать Еще.одна.пятница.Friday.After.Next.(Маркус.Рэбой).[2002.комедия.драма.WEB-DL].[1080p].[MVO]x2+[Eng]+[Sub.Eng].torrent без регистрации
Золото ЗОЛОТАЯ РАЗДАЧА! СКАЧАННОЕ НЕ ЗАСЧИТЫВАЕТСЯ! Золото
Дата: Зарегистрирован   [ Тип: внутренний ] Как тут cкачать?
MAGNET ссылка
MAGNET ссылка


Скачать .torrent

46 KB

Статус: проверено DHT
Скачан: торрент - 11 раз, раздача полностью - 0 раз
Размер: 8,93 GB
Оценка:  - (Голосов: 0)
Поблагодарили: 1
Поделиться ссылкой на эту раздачу с друзьями:
В контактеFacebookОдноклассникиTwitterLivejournalМой МирLiveinternet
 

 
Показать сообщения:    


Вы не можете начинать темы
Вы не можете отвечать на сообщения
Вы не можете редактировать свои сообщения
Вы не можете удалять свои сообщения
Вы не можете голосовать в опросах
Вы не можете прикреплять файлы к сообщениям
Вы можете скачивать файлы