Loading...
Error

Скачать Готэм / Gotham (Сезон 04, серии 01-05 из 22) (Дэнни Кэннон, Т.Дж. Скотт, Дермотт Даунс) [2017, триллер, драма, криминал, HDTV] [1080p] [MVO] (HamsterStudio) торрент без регистрации

Статистика раздачи
Размер:  8,22 GB   |    Скачан:  10 раз
Сидов:  1  [  0 KB/s  ]  

 
 
 
Автор Сообщение

leon030982

[] 



Готэм ◈ Gotham

✦ Год выхода: 2017
✦ Жанр: триллер, драма, криминал
✦ Страна: США
✦ Продолжительность: ~ 00:45:00 - серия
✦ Перевод: Профессиональный (многоголосый закадровый) [HamsterStudio]


✦ Режиссер: Дэнни Кэннон, Т.Дж. Скотт, Дермотт Даунс

✦ В ролях: Бен МакКензи, Шон Пертуи, Робин Тейлор, Забрина Гевара, Эрин Ричардс, Донал Лог, Джада Пинкетт Смит, Дэвид Мазоуз, Камрен Бикондова, Кори Майкл Смит и др.



Новый сотрудник департамента полиции Готэма, детектив Джеймс Гордон и его напарник Харви Баллок назначаются начальником отдела полиции Готэма по расследованию убийств Сарой Эссен на самое громкое дело последних лет - убийство Томаса и Марты Уэйн. Во время расследования Гордон знакомится с сыном убитых - Брюсом Уэйном, который после смерти родителей находится под опекой своего дворецкого Альфреда. Одновременно с расследованием убийства Гордону приходится бороться с местным главарем банды Фишем Муни, а также с будущими злодеями Готэма: Селиной Кайл и Освальдом Кобблпотом. В итоге, Гордон фокусируется на дружбе с молодым Брюсом, чтобы в будущем сделать из маленького мальчика Тёмного рыцаря - защитника Готэма.





Информация о файле:

✦ Качество: HDTV (1080p)
✦ Формат: MKV
✦ Видео кодек: AVC
✦ Аудио кодек: AC3
✦ Видео: MPEG-4 AVC, ~ 4934 Кбит/с, 1920x1080, 23.976 fps
✦ Аудио: 48 kHz, AC3, 2 ch, 384 kbps
Внимание! Раздача ведётся путём добавления новых серий; при каждом добавлении создётся новый торрент. Чтобы начать докачку новой серии, пользователям необходимо сделать следующее: (1) остановить скачивание, (2) удалить старый торрент у себя из клиента (старые серии удалять не надо), (3) скачать новый торрент и запустить его у себя в клиенте вместо старого, при этом указать клиенту путь в старую папку куда и должно происходить скачивание новых серий.
Ваш клиент при этом должен произвести хеширование (проверку) старой папки (если не производит сам - помогите ему сделать это), и будет докачивать только те серии которых у вас ещё нет. Старые серии при этом не удаляются, а продолжают раздаваться!
Eсли вы уже удалили старые серии, то предотвратить повторную закачку старых серий можно, отжав галочку в соответсвующих местах при запуске нового торрента.
General
Unique ID : 175348182662121067393118177638665834356 (0x83EAD4E1A8C17DD29BF9EA6772764F74)
Complete name : E:\Gotham.S04E01.HDTV.1080p.HamsterStudio.mkv
Format : Matroska
Format version : Version 4 / Version 2
File size : 1.61 GiB
Duration : 42mn 23s
Overall bit rate mode : Variable
Overall bit rate : 5 426 Kbps
Encoded date : UTC 2017-09-22 18:37:53
Writing application : mkvmerge v7.8.0 ('River Man') 64bit built on Mar 27 2015 16:31:37
Writing library : libebml v1.3.1 + libmatroska v1.4.2

Video
ID : 1
Format : AVC
Format/Info : Advanced Video Codec
Format profile : Main@L4
Format settings, CABAC : Yes
Format settings, ReFrames : 3 frames
Codec ID : V_MPEG4/ISO/AVC
Duration : 42mn 23s
Bit rate mode : Variable
Bit rate : 4 934 Kbps
Maximum bit rate : 24.0 Mbps
Width : 1 920 pixels
Height : 1 080 pixels
Display aspect ratio : 16:9
Frame rate mode : Constant
Frame rate : 23.976 fps
Standard : NTSC
Color space : YUV
Chroma subsampling : 4:2:0
Bit depth : 8 bits
Scan type : Progressive
Bits/(Pixel*Frame) : 0.099
Stream size : 1.46 GiB (91%)
Default : Yes
Forced : No
Color range : Limited

Audio
ID : 2
Format : AC-3
Format/Info : Audio Coding 3
Mode extension : CM (complete main)
Format settings, Endianness : Big
Codec ID : A_AC3
Duration : 42mn 23s
Bit rate mode : Constant
Bit rate : 384 Kbps
Channel(s) : 2 channels
Channel positions : Front: L R
Sampling rate : 48.0 KHz
Compression mode : Lossy
Stream size : 116 MiB (7%)
Default : Yes
Forced : No





Скачать Готэм.Gotham.(Сезон.04.серии.01-05.из.22).(Дэнни.Кэннон.Т.Дж.Скотт.Дермотт.Даунс).[2017.триллер.драма.криминал.HDTV].[1080p].[MVO].(HamsterStudio).torrent без регистрации
Золото ЗОЛОТАЯ РАЗДАЧА! СКАЧАННОЕ НЕ ЗАСЧИТЫВАЕТСЯ! Золото
Дата: Зарегистрирован   [ Тип: внутренний ] Как тут cкачать?
MAGNET ссылка
MAGNET ссылка


Скачать .torrent

42 KB

Статус: проверено DHT
Скачан: торрент - 10 раз, раздача полностью - 0 раз
Размер: 8,22 GB
Оценка:  - (Голосов: 0)
Поблагодарили: 0
Поделиться ссылкой на эту раздачу с друзьями:
В контактеFacebookОдноклассникиTwitterLivejournalМой МирLiveinternet
 

 
Показать сообщения:    


Вы не можете начинать темы
Вы не можете отвечать на сообщения
Вы не можете редактировать свои сообщения
Вы не можете удалять свои сообщения
Вы не можете голосовать в опросах
Вы не можете прикреплять файлы к сообщениям
Вы можете скачивать файлы