Loading...
Error

Скачать Готэм / Gotham (Сезон 04, серии 01-05 из 22) (Дэнни Кэннон, Т.Дж. Скотт, Дермотт Даунс) [2017, триллер, драма, криминал, WEB-DLRip] [MVO] (NewStudio) торрент без регистрации

Статистика раздачи
Размер:  2,69 GB   |    Скачан:  23 раза
Сидов:  1  [  0 KB/s  ]  

 
 
 
Автор Сообщение

leon030982

[] 


Готэм | Gotham



Год выпуска: 2017
Страна: США
Жанр: триллер, драма, криминал
Продолжительность: ~ 00:43:00
Перевод: Профессиональный (многоголосый закадровый) | *NewStudio*
Субтитры: отсутствуют

Режиссёр: Дэнни Кэннон, Т.Дж. Скотт, Дермотт Даунс

В ролях: Бен МакКензи, Шон Пертуи, Робин Тейлор, Забрина Гевара, Эрин Ричардс, Донал Лог, Джада Пинкетт Смит, Дэвид Мазоуз, Камрен Бикондова, Кори Майкл Смит и др.

Описание: Новый сотрудник департамента полиции Готэма, детектив Джеймс Гордон и его напарник Харви Буллок назначаются начальником отдела полиции Готэма по расследованию убийств Сарой Эссен на самое громкое дело последних лет - убийство Томаса и Марты Уэйн. Во время расследования Гордон знакомится с сыном убитых - Брюсом Уэйном, который после смерти родителей находится под опекой своего дворецкого Альфреда. Одновременно с расследованием убийства Гордону приходится бороться с местным главарем банды Фиш Муни, а также с будущими злодеями Готэма: Селиной Кайл и Освальдом Кобблпотом. В итоге, Гордон фокусируется на дружбе с молодым Брюсом, чтобы в будущем сделать из маленького мальчика Тёмного рыцаря - защитника



Релиз --

Качество: WEB-DLRip
Формат: AVI
Видео: XviD, 720x400 (16:9), ~ 1725 kbps, 23,976 fps
Аудио: 48,0 КГц, MP3, 2 ch, 128 kbps - MVO
Аудио: 48,0 КГц, MP3, 2 ch, 128 kbps - ENG

Добавлена 5-я серия!
General
Complete name : E:\Gotham.S04.NewStudio\Gotham.s04e01.WEBDLRip.NewStudio.avi
Format : AVI
Format/Info : Audio Video Interleave
File size : 550 MiB
Duration : 43mn 39s
Overall bit rate : 1 761 Kbps
Writing application : VirtualDubMod 1.5.10.2 (build 2540/release)
Writing library : VirtualDubMod build 2540/release

Video
ID : 0
Format : MPEG-4 Visual
Format profile : Advanced Simple@L5
Format settings, BVOP : 2
Format settings, QPel : Yes
Format settings, GMC : No warppoints
Format settings, Matrix : Default (MPEG)
Muxing mode : Packed bitstream
Codec ID : XVID
Codec ID/Hint : XviD
Duration : 43mn 39s
Bit rate : 1 425 Kbps
Width : 720 pixels
Height : 400 pixels
Display aspect ratio : 16:9
Frame rate : 23.976 fps
Color space : YUV
Chroma subsampling : 4:2:0
Bit depth : 8 bits
Scan type : Progressive
Compression mode : Lossy
Bits/(Pixel*Frame) : 0.206
Stream size : 445 MiB (81%)
Writing library : XviD 73

Audio #1
ID : 1
Format : MPEG Audio
Format version : Version 1
Format profile : Layer 3
Mode : Joint stereo
Mode extension : MS Stereo
Codec ID : 55
Codec ID/Hint : MP3
Duration : 43mn 39s
Bit rate mode : Constant
Bit rate : 128 Kbps
Channel(s) : 2 channels
Sampling rate : 48.0 KHz
Compression mode : Lossy
Stream size : 40.0 MiB (7%)
Alignment : Aligned on interleaves

Audio #2
ID : 2
Format : MPEG Audio
Format version : Version 1
Format profile : Layer 3
Mode : Joint stereo
Codec ID : 55
Codec ID/Hint : MP3
Duration : 43mn 39s
Bit rate mode : Constant
Bit rate : 128 Kbps
Channel(s) : 2 channels
Sampling rate : 48.0 KHz
Compression mode : Lossy
Stream size : 40.0 MiB (7%)
Alignment : Aligned on interleaves
Writing library : LAME3.99r
Encoding settings : -m j -V 4 -q 2 -lowpass 17 -b 128
Когда раздача ведётся путём добавления новых серий, при каждом добавлении создётся новый торрент. Чтобы начать докачку новой серии, пользователям необходимо сделать следующее:
(1) остановить скачивание,
(2) удалить старый торрент у себя из клиента (старые серии удалять не надо),
(3) скачать новый торрент и запустить его у себя в клиенте вместо старого, при этом указать клиенту путь в старую папку, куда и должно происходить скачивание новых серий.
Ваш клиент при этом должен произвести хеширование (проверку) старой папки (если не производит сам - помогите ему сделать это), и будет докачивать только те серии, которых у вас ещё нет. Старые серии при этом не удаляются, а продолжают раздаваться!
Eсли вы уже удалили старые серии, то предотвратить повторную закачку старых серий можно, отжав галочку в соответсвующих местах при запуске нового торрента. По возможности, желательно не удалять старые серии как можно дольше, чтобы релизёр не столько продолжал раздавать старые серии, а смог сконцентрироваться на новых.




Скачать Готэм.Gotham.(Сезон.04.серии.01-05.из.22).(Дэнни.Кэннон.Т.Дж.Скотт.Дермотт.Даунс).[2017.триллер.драма.криминал.WEB-DLRip].[MVO].(NewStudio).torrent без регистрации
Золото ЗОЛОТАЯ РАЗДАЧА! СКАЧАННОЕ НЕ ЗАСЧИТЫВАЕТСЯ! Золото
Дата: Зарегистрирован   [ Тип: внутренний ] Как тут cкачать?
MAGNET ссылка
MAGNET ссылка


Скачать .torrent

15 KB

Статус: проверено DHT
Скачан: торрент - 23 раз, раздача полностью - 0 раз
Размер: 2,69 GB
Оценка:  - (Голосов: 0)
Поблагодарили: 0
Поделиться ссылкой на эту раздачу с друзьями:
В контактеFacebookОдноклассникиTwitterLivejournalМой МирLiveinternet
 

 
Показать сообщения:    


Вы не можете начинать темы
Вы не можете отвечать на сообщения
Вы не можете редактировать свои сообщения
Вы не можете удалять свои сообщения
Вы не можете голосовать в опросах
Вы не можете прикреплять файлы к сообщениям
Вы можете скачивать файлы