Loading...
Error

Скачать Оборотень / Ginger Snaps (Джон Фоусет) [2000, ужасы, фэнтези, драма, BDRip] [1080p] [AVO]+[DVO]+[Eng]+[Sub Rus, Eng]x2 торрент без регистрации

Статистика раздачи
Размер:  10,98 GB   |    Скачан:  10 раз
Сидов:  1  [  0 KB/s  ]  
 
 
 
Автор Сообщение

Marsianka

[] 

Название: Оборотень
Оригинальное название: Ginger Snaps
Год выхода: 2000
Страна: Канада, США
Студия: Copperheart Entertainment, Water Pictures, Motion International
Продолжительность: 01:48:10
Жанр: ужасы, фэнтези, драма

Режиссер: Джон Фоусет
В ролях: Эмили Перкинс, Кэтрин Изабель, Крис Лемке, Мими Роджерс, Джесси Мосс, Даниэль Хэмптон, Джон Буржуа, Питер Келеган, Кристофер Редман, Джимми МакИннис, ...

О фильме: 16-летняя Джинджер и ее младшая сестра Бриджитт очень любят снимать на видеокамеру «фильмы ужасов», безжалостно расходуя огромное количество красной краски. И вообще развлекаются как только могут.
Однажды во время одной из ночных вылазок на Джинджер нападает какое-то огромное чудовище. Бриджитт помогает скрыть следы укусов от родителей. К удивлению сестер, раны быстро затягиваются. Но когда с Джинджер начинают происходить какие-то странные изменения, девочки понимают, что их проблемы только начинаются…



Кодек: x264
Качество: BDRip 1080p
Видео: 1920x1080, 12000 kbps, 23,976 fps

- Профессиональный (двуголосый, закадровый) Twister
- Авторский (одноголосый, закадровый) Яроцкий Михаил
- Субтитры
Аудио #1: AC-3, 6 ch, 640 kbps (Rus) - AVO Яроцкий Михаил (kyberpunk)
Аудио #2: AC-3, 6 ch, 384 kbps (Rus) - DVO Twister
Аудио #3: DTS, 6 ch, 1509 kbps (Eng)
Субтитры: Русские, Английские
За исходник спасибо - arxivariys
Перевод и озвучка Михаила Яроцкого доступны благодаря - dikii. Сведение с голосом - mihaildns

x264 [info]: frame I:837 Avg QP:19.51 size:171032
x264 [info]: frame P:34014 Avg QP:21.73 size: 88023
x264 [info]: frame B:120741 Avg QP:23.69 size: 54599
x264 [info]: consecutive B-frames: 1.4% 4.0% 5.5% 28.8% 12.1% 33.3% 9.1% 3.4% 1.1% 0.7% 0.2% 0.3% 0.1%

Общее
Уникальный идентификатор : 221414864090364812240767848868539667119 (0xA692F3A1D9F5560EBDFB6363D7BE12AF)
Полное имя : Оборотень (Ginger Snaps) 2000 BDRip 1080p.mkv
Формат : Matroska
Версия формата : Version 2
Размер файла : 11,0 Гбайт
Продолжительность : 1 ч. 48 м.
Общий поток : 14,5 Мбит/сек
Дата кодирования : UTC 2017-08-29 14:22:17
Программа кодирования : mkvmerge v4.0.0 ('The Stars were mine') сборка от Jun 6 2010 16:18:42
Библиотека кодирования : libebml v1.0.0 + libmatroska v1.0.0

Видео
Идентификатор : 1
Формат : AVC
Формат/Информация : Advanced Video Codec
Профиль формата : High@L4.1
Параметр CABAC формата : Да
Параметр ReFrames формата : 4 кадра
Идентификатор кодека : V_MPEG4/ISO/AVC
Продолжительность : 1 ч. 48 м.
Битрейт : 12,0 Мбит/сек
Ширина : 1920 пикселей
Высота : 1080 пикселей
Соотношение сторон : 16:9
Режим частоты кадров : Постоянный
Частота кадров : 23,976 (24000/1001) кадра/сек
Цветовое пространство : YUV
Субдискретизация насыщенности : 4:2:0
Битовая глубина : 8 бит
Тип развёртки : Прогрессивная
Бит/(Пиксели*Кадры) : 0.241
Размер потока : 8,85 Гбайт (81%)
Библиотека кодирования : x264 core 146 r2538 121396c
Настройки программы : cabac=1 / ref=4 / deblock=1:-2:-2 / analyse=0x3:0x133 / me=umh / subme=11 / psy=1 / psy_rd=1.00:0.00 / mixed_ref=1 / me_range=32 / chroma_me=1 / trellis=2 / 8x8dct=1 / cqm=0 / deadzone=21,11 / fast_pskip=0 / chroma_qp_offset=-2 / threads=12 / lookahead_threads=2 / sliced_threads=0 / nr=0 / decimate=0 / interlaced=0 / bluray_compat=0 / constrained_intra=0 / bframes=12 / b_pyramid=2 / b_adapt=2 / b_bias=0 / direct=3 / weightb=1 / open_gop=0 / weightp=2 / keyint=240 / keyint_min=23 / scenecut=40 / intra_refresh=0 / rc=2pass / mbtree=0 / bitrate=12000 / ratetol=1.0 / qcomp=0.60 / qpmin=0 / qpmax=69 / qpstep=4 / cplxblur=20.0 / qblur=0.5 / ip_ratio=1.40 / pb_ratio=1.30 / aq=3:0.80
Язык : English
Default : Нет
Forced : Нет

Аудио #1
Идентификатор : 2
Формат : AC-3
Формат/Информация : Audio Coding 3
Расширение режима : CM (complete main)
Параметр Endianness формата : Big
Идентификатор кодека : A_AC3
Продолжительность : 1 ч. 48 м.
Вид битрейта : Постоянный
Битрейт : 640 Кбит/сек
Каналы : 6 каналов
Расположение каналов : Front: L C R, Side: L R, LFE
Частота : 48,0 КГц
Частота кадров : 31,250 кадров/сек (1536 spf)
Метод сжатия : С потерями
Размер потока : 495 Мбайт (4%)
Заголовок : AVO Яроцкий Михаил (kyberpunk)
Язык : Russian
Default : Нет
Forced : Нет

Аудио #2
Идентификатор : 3
Формат : AC-3
Формат/Информация : Audio Coding 3
Расширение режима : CM (complete main)
Параметр Endianness формата : Big
Идентификатор кодека : A_AC3
Продолжительность : 1 ч. 48 м.
Вид битрейта : Постоянный
Битрейт : 384 Кбит/сек
Каналы : 6 каналов
Расположение каналов : Front: L C R, Side: L R, LFE
Частота : 48,0 КГц
Частота кадров : 31,250 кадров/сек (1536 spf)
Метод сжатия : С потерями
Размер потока : 297 Мбайт (3%)
Заголовок : DVO Twister
Язык : Russian
Default : Нет
Forced : Нет

Аудио #3
Идентификатор : 4
Формат : DTS
Формат/Информация : Digital Theater Systems
Режим : 16
Параметр Endianness формата : Big
Идентификатор кодека : A_DTS
Продолжительность : 1 ч. 48 м.
Вид битрейта : Постоянный
Битрейт : 1509 Кбит/сек
Каналы : 6 каналов
Расположение каналов : Front: L C R, Side: L R, LFE
Частота : 48,0 КГц
Частота кадров : 93,750 кадра/сек (512 spf)
Битовая глубина : 24 бит
Метод сжатия : С потерями
Размер потока : 1,14 Гбайт (10%)
Язык : English
Default : Нет
Forced : Нет

Текст #1
Идентификатор : 5
Формат : UTF-8
Идентификатор кодека : S_TEXT/UTF8
Идентификатор кодека/Информация : UTF-8 Plain Text
Язык : Russian
Default : Нет
Forced : Нет

Текст #2
Идентификатор : 6
Формат : UTF-8
Идентификатор кодека : S_TEXT/UTF8
Идентификатор кодека/Информация : UTF-8 Plain Text
Язык : English
Default : Нет
Forced : Нет



Скачать Оборотень.Ginger.Snaps.(Джон.Фоусет).[2000.ужасы.фэнтези.драма.BDRip].[1080p].[AVO]+[DVO]+[Eng]+[Sub.Rus.Eng]x2.torrent без регистрации
Золото ЗОЛОТАЯ РАЗДАЧА! СКАЧАННОЕ НЕ ЗАСЧИТЫВАЕТСЯ! Золото
Дата: Зарегистрирован   [ Тип: внутренний ] Как тут cкачать?
MAGNET ссылка
MAGNET ссылка


Скачать .torrent

56 KB

Статус: проверено DHT
Скачан: торрент - 10 раз, раздача полностью - 16 раз
Размер: 10,98 GB
Оценка:  - (Голосов: 0)
Поблагодарили: 0
Поделиться ссылкой на эту раздачу с друзьями:
В контактеFacebookОдноклассникиTwitterLivejournalМой МирLiveinternet
 

 
Показать сообщения:    


Вы не можете начинать темы
Вы не можете отвечать на сообщения
Вы не можете редактировать свои сообщения
Вы не можете удалять свои сообщения
Вы не можете голосовать в опросах
Вы не можете прикреплять файлы к сообщениям
Вы можете скачивать файлы