Loading...
Error

Скачать Двойка / The Deuce (Сезон 01) (Джеймс Франко, Мишель МакЛарен, Ута Бризвитц) [2017, драма, WEB-DLRip] [DVO] (Кубик в Кубе) торрент без регистрации

Статистика раздачи
Размер:  10,02 GB   |    Скачан:  24 раза

Полного источника не было: 30 минут

 
 
 
Автор Сообщение

leon030982

[] 

Двойка / The Deuce


Год выпуска: 2017
Страна: США
Жанр: драма
Продолжительность: пилот ~01:25:15, остальные серии ~ 01:00:00
Перевод: Профессиональный (двухголосый, закадровый) *Кубик в Кубе*

Режиссёр: Джеймс Франко, Мишель МакЛарен, Ута Бризвитц

В ролях: Джеймс Франко, Мэгги Джилленхол, Гари Карр, Маргарита Левиева, Лоуренс Гиллиард мл., Доминик Фишбэк, Эмили Мид, Гбенга Акиннагбе, Кристофер Бауэр и др.

Описание: Сериал рассказывает о жизни Нью-Йорка в 1970–1980 гг., когда порнография и проституция были широко распространены в этот период времени на Манхэттене.



Качество: WEB-DLRip
Формат: AVI
Видео: AVI, 720x400 (1.80:1), 23.976 fps, XviD MPEG-4 ~2000 kbps avg, 0.35 bit/pixel
Аудио: AC3, 48 kHz, 6 ch, 384 kbps - Rus
Аудио: AC3, 48 kHz, 6 ch, 384 kbps - Eng
Субтитры: Английские
General
Complete name : E:\The Deuce Season 1 CasStudio.TV\The.Deuce.s01e02.rus.eng.CasStudio.TV.avi
Format : AVI
Format/Info : Audio Video Interleave
File size : 1.17 GiB
Duration : 1 h 0 min
Overall bit rate : 2 782 kb/s
Writing application : VirtualDubMod 1.5.10.2 (build 2540/release)
Writing library : VirtualDubMod build 2540/release

Video
ID : 0
Format : MPEG-4 Visual
Format profile : Advanced Simple@L5
Format settings : BVOP1
Format settings, BVOP : 1
Format settings, QPel : No
Format settings, GMC : No warppoints
Format settings, Matrix : Default (MPEG)
Codec ID : XVID
Codec ID/Hint : XviD
Duration : 1 h 0 min
Source duration : 59 min 31 s
Bit rate : 1 996 kb/s
Width : 720 pixels
Height : 400 pixels
Display aspect ratio : 16:9
Frame rate : 23.976 (24000/1001) FPS
Color space : YUV
Chroma subsampling : 4:2:0
Bit depth : 8 bits
Scan type : Progressive
Compression mode : Lossy
Bits/(Pixel*Frame) : 0.289
Stream size : 850 MiB (71%)
Writing library : XviD 73

Audio #1
ID : 1
Format : AC-3
Format/Info : Audio Coding 3
Format settings, Endianness : Big
Codec ID : 2000
Duration : 1 h 0 min
Source duration : 59 min 31 s
Bit rate mode : Constant
Bit rate : 384 kb/s
Channel(s) : 6 channels
Channel positions : Front: L C R, Side: L R, LFE
Sampling rate : 48.0 kHz
Frame rate : 31.250 FPS (1536 SPF)
Bit depth : 16 bits
Compression mode : Lossy
Stream size : 163 MiB (14%)
Alignment : Split accross interleaves
Interleave, duration : 42 ms (1.00 video frame)
Interleave, preload duratio : 500 ms
Service kind : Complete Main

Audio #2
ID : 2
Format : AC-3
Format/Info : Audio Coding 3
Format settings, Endianness : Big
Codec ID : 2000
Duration : 1 h 0 min
Source duration : 59 min 31 s
Bit rate mode : Constant
Bit rate : 384 kb/s
Channel(s) : 6 channels
Channel positions : Front: L C R, Side: L R, LFE
Sampling rate : 48.0 kHz
Frame rate : 31.250 FPS (1536 SPF)
Bit depth : 16 bits
Compression mode : Lossy
Stream size : 163 MiB (14%)
Alignment : Split accross interleaves
Interleave, duration : 42 ms (1.00 video frame)
Interleave, preload duratio : 500 ms
Service kind : Complete Main



Скачать Двойка.The.Deuce.(Сезон.01).(Джеймс.Франко.Мишель.МакЛарен.Ута.Бризвитц).[2017.драма.WEB-DLRip].[DVO].(Кубик.в.Кубе).torrent без регистрации
Золото ЗОЛОТАЯ РАЗДАЧА! СКАЧАННОЕ НЕ ЗАСЧИТЫВАЕТСЯ! Золото
Дата: Зарегистрирован   [ Тип: внутренний ] Как тут cкачать?
MAGNET ссылка
MAGNET ссылка


Скачать .torrent

27 KB

Статус: проверено DHT
Скачан: торрент - 24 раз, раздача полностью - 1 раз
Размер: 10,02 GB
Оценка:  - (Голосов: 0)
Поблагодарили: 0
Поделиться ссылкой на эту раздачу с друзьями:
В контактеFacebookОдноклассникиTwitterLivejournalМой МирLiveinternet
 

 
Показать сообщения:    


Вы не можете начинать темы
Вы не можете отвечать на сообщения
Вы не можете редактировать свои сообщения
Вы не можете удалять свои сообщения
Вы не можете голосовать в опросах
Вы не можете прикреплять файлы к сообщениям
Вы можете скачивать файлы