Loading...
Error

/ Lethal Weapon ( 02) ( , ) [2017, , , , , WEBRip] [720p] [MVO] (Good People) + [Orig]

39,24 GB   |    :  103
1  [  0 KB/s  ]  
 
 
 

leon030982

[] 

/ Lethal Weapon



: 2017
:
: , , ,
: ~ 00:44:00
: ( ) Good People
:

: ,

: , , , , , , , , .

: , . ( ), . , ( ), . , , .



: WEBRip 720p
: MKV
: AVC
: AC3, E-AC3
: H264, 1280x720 (16:9), 23.976 fps, ~4200kbps, ~0.189 bit/pixel
1: Dolby AC3 48000Hz 5.1 640Kbps - MVO
2: Dolby E-AC3 48000Hz 5.1 640Kbps - ENG

! 19-22-
General
Unique ID : 205465891293333430410635541342865249074 (0x9A934A8FF69557B594D885A8A976D332)
Complete name : S:\HD Video\Lethal Weapon. Season 2 (WEBRip l 720p l Good People)\Lethal.Weapon.S02E01.El.Gringo.Loco.720p.AMZN.WEBRip.DDP5.1.x264-GoodPeople.mkv
Format : Matroska
Format version : Version 2
File size : 1.72 GiB
Duration : 44mn 10s
Overall bit rate : 5 572 Kbps
Encoded date : UTC 2017-09-30 00:49:58
Writing application : mkvmerge v5.4.0 ('Piper') built on Mar 10 2012 13:34:39
Writing library : libebml v1.2.3 + libmatroska v1.3.0
DURATION : 00:43:29.007000000
NUMBER_OF_FRAMES : 1024
NUMBER_OF_BYTES : 30004
_STATISTICS_WRITING_APP : mkvmerge v10.0.0 ('To Drown In You') 64bit
_STATISTICS_WRITING_DATE_UT : 2017-09-27 18:51:36
_STATISTICS_TAGS : BPS DURATION NUMBER_OF_FRAMES NUMBER_OF_BYTES

Video
ID : 1
Format : AVC
Format/Info : Advanced Video Codec
Format profile : High@L4.1
Format settings, CABAC : Yes
Format settings, ReFrames : 9 frames
Codec ID : V_MPEG4/ISO/AVC
Duration : 44mn 10s
Bit rate : 4 181 Kbps
Width : 1 280 pixels
Height : 720 pixels
Display aspect ratio : 16:9
Frame rate mode : Constant
Frame rate : 23.976 fps
Color space : YUV
Chroma subsampling : 4:2:0
Bit depth : 8 bits
Scan type : Progressive
Bits/(Pixel*Frame) : 0.189
Stream size : 1.29 GiB (75%)
Writing library : x264 core 148 r2638 7599210
Encoding settings : cabac=1 / ref=9 / deblock=1:-3:-3 / analyse=0x3:0x133 / me=umh / subme=10 / psy=1 / psy_rd=1.00:0.00 / mixed_ref=1 / me_range=48 / chroma_me=1 / trellis=2 / 8x8dct=1 / cqm=0 / deadzone=21,11 / fast_pskip=0 / chroma_qp_offset=-2 / threads=12 / lookahead_threads=2 / sliced_threads=0 / nr=0 / decimate=0 / interlaced=0 / bluray_compat=0 / constrained_intra=0 / bframes=9 / b_pyramid=0 / b_adapt=2 / b_bias=0 / direct=3 / weightb=1 / open_gop=0 / weightp=2 / keyint=240 / keyint_min=23 / scenecut=40 / intra_refresh=0 / rc=crf / mbtree=0 / crf=17.0 / qcomp=0.60 / qpmin=10 / qpmax=51 / qpstep=4 / ip_ratio=1.40 / pb_ratio=1.30 / aq=3:0.70
Default : Yes
Forced : No

Audio #1
ID : 2
Format : AC-3
Format/Info : Audio Coding 3
Mode extension : CM (complete main)
Format settings, Endianness : Big
Codec ID : A_AC3
Duration : 44mn 10s
Bit rate mode : Constant
Bit rate : 640 Kbps
Channel(s) : 6 channels
Channel positions : Front: L C R, Side: L R, LFE
Sampling rate : 48.0 KHz
Compression mode : Lossy
Stream size : 202 MiB (11%)
Language : Russian
Default : Yes
Forced : No

Audio #2
ID : 3
Format : E-AC-3
Format/Info : Audio Coding 3
Format settings, Endianness : Big
Codec ID : A_EAC3
Duration : 44mn 10s
Bit rate mode : Constant
Bit rate : 640 Kbps
Channel(s) : 6 channels
Channel positions : Front: L C R, Side: L R, LFE
Sampling rate : 48.0 KHz
Compression mode : Lossy
Stream size : 202 MiB (11%)
Language : English
Default : No
Forced : No

Text
ID : 4
Format : UTF-8
Codec ID : S_TEXT/UTF8
Codec ID/Info : UTF-8 Plain Text
Language : English
Default : No
Forced : No
! ; . , :
.
( ).
, .

() ( - ), . , !
E , , . , , .



..Lethal.Weapon.(.02).(..).[2017.....WEBRip].[720p].[MVO].(Good.People).+.[Orig].torrent
  ! ! 
:   [ : ] c?
MAGNET
MAGNET


.torrent

101 KB

: DHT
: - 103 , - 3
: 39,24 GB
- (: 0)
: 1
:
 FacebookTwitterLivejournal Liveinternet
 

 
: