Loading...
Error

Скачать Проклятие Аннабель: Зарождение зла / Annabelle: Creation (Дэвид Ф. Сандберг) [2017, ужасы, триллер, детектив, BDRip] [1080p] [DUB] [Лицензия / iTunes] торрент без регистрации

Статистика раздачи
Размер:  8,68 GB   |    Скачан:  253 раза
Сидов:  1  [  0 KB/s  ]  

 
 
 
Автор Сообщение

leon030982

[] 

Проклятие Аннабель: Зарождение зла / Annabelle: Creation

Год выхода: 2017
Жанр: ужасы, триллер, детектив
Страна: США
Студия: Atomic Monster, New Line Cinema
Продолжительность: 01:49:43
Перевод: Дубляж [Лицензия / iTunes]
Субтитры: Русские, английские

Режиссер: Дэвид Ф. Сандберг

В ролях: Энтони ЛаПалья, Самара Ли, Миранда Отто, Брэд Гринквист, Лулу Уилсон, Талита Бейтман, Стефани Сигман, Марк Брэмхолл, Грэйс Фултон, Филиппа Култхард

О фильме: Через несколько лет после трагической гибели маленькой дочери кукольник и его жена приглашают в свой дом монахиню и нескольких девочек из приюта, вскоре становящихся мишенью для одержимого создания кукольника — Аннабель.





Качество: BDRip 1080p
Кодек: MKV (H.264)
Видео: MPEG-4 AVC, 10.5 Mбит/с, 1920x800, 23.976 fps, AVC
Звук: AC3, 384 Kbps, 48.0 KHz, 6 ch - DUB
Звук: AC3, 448 Kbps, 48.0 KHz, 6 ch - ENG

Торент обновлен! улучшен звук
General
Unique ID : 205491749908947414282143149107419680879 (0x9A98457D93F4B0EA8FB7D6ABEF92106F)
Complete name : G:\VideoSSD\Annabelle.Creation.2017.D.BDRip.1080p.ExKinoRay.mkv
Format : Matroska
Format version : Version 4 / Version 2
File size : 8.68 GiB
Duration : 1 h 49 min
Overall bit rate : 11.3 Mb/s
Encoded date : UTC 2017-10-20 18:25:38
Writing application : mkvmerge v17.0.0 ('Be Ur Friend') 64-bit
Writing library : libebml v1.3.5 + libmatroska v1.4.8

Video
ID : 1
Format : AVC
Format/Info : Advanced Video Codec
Format profile : High@L4.1
Format settings : CABAC / 5 Ref Frames
Format settings, CABAC : Yes
Format settings, RefFrames : 5 frames
Codec ID : V_MPEG4/ISO/AVC
Duration : 1 h 49 min
Bit rate : 10.5 Mb/s
Width : 1 920 pixels
Height : 800 pixels
Display aspect ratio : 2.40:1
Frame rate mode : Constant
Frame rate : 23.976 (24000/1001) FPS
Color space : YUV
Chroma subsampling : 4:2:0
Bit depth : 8 bits
Scan type : Progressive
Bits/(Pixel*Frame) : 0.285
Stream size : 8.04 GiB (93%)
Writing library : x264 core 148 r2705 3f5ed56
Encoding settings : cabac=1 / ref=5 / deblock=1:-2:-2 / analyse=0x3:0x133 / me=umh / subme=11 / psy=1 / psy_rd=1.05:0.05 / mixed_ref=1 / me_range=48 / chroma_me=1 / trellis=2 / 8x8dct=1 / cqm=0 / deadzone=21,11 / fast_pskip=0 / chroma_qp_offset=-3 / threads=12 / lookahead_threads=2 / sliced_threads=0 / nr=0 / decimate=0 / interlaced=0 / bluray_compat=0 / constrained_intra=0 / bframes=8 / b_pyramid=2 / b_adapt=2 / b_bias=0 / direct=3 / weightb=1 / open_gop=0 / weightp=2 / keyint=240 / keyint_min=23 / scenecut=40 / intra_refresh=0 / rc_lookahead=50 / rc=2pass / mbtree=0 / bitrate=10500 / ratetol=1.0 / qcomp=0.60 / qpmin=0 / qpmax=69 / qpstep=4 / cplxblur=20.0 / qblur=0.5 / vbv_maxrate=50000 / vbv_bufsize=62500 / nal_hrd=none / filler=0 / ip_ratio=1.40 / pb_ratio=1.30 / aq=3:0.80
Language : English
Default : Yes
Forced : No

Audio #1
ID : 2
Format : AC-3
Format/Info : Audio Coding 3
Format settings, Endianness : Big
Codec ID : A_AC3
Duration : 1 h 49 min
Bit rate mode : Constant
Bit rate : 384 kb/s
Channel(s) : 6 channels
Channel positions : Front: L C R, Side: L R, LFE
Sampling rate : 48.0 kHz
Frame rate : 31.250 FPS (1536 SPF)
Bit depth : 16 bits
Compression mode : Lossy
Stream size : 301 MiB (3%)
Title : Dub [iTunes]
Language : Russian
Service kind : Complete Main
Default : Yes
Forced : No

Audio #2
ID : 3
Format : AC-3
Format/Info : Audio Coding 3
Format settings, Endianness : Big
Codec ID : A_AC3
Duration : 1 h 49 min
Bit rate mode : Constant
Bit rate : 448 kb/s
Channel(s) : 6 channels
Channel positions : Front: L C R, Side: L R, LFE
Sampling rate : 48.0 kHz
Frame rate : 31.250 FPS (1536 SPF)
Bit depth : 16 bits
Compression mode : Lossy
Stream size : 352 MiB (4%)
Title : Original
Language : English
Service kind : Complete Main
Default : No
Forced : No

Text #1
ID : 4
Format : UTF-8
Codec ID : S_TEXT/UTF8
Codec ID/Info : UTF-8 Plain Text
Duration : 1 h 47 min
Bit rate : 0 b/s
Count of elements : 7
Stream size : 267 Bytes (0%)
Title : Forced
Language : Russian
Default : Yes
Forced : No

Text #2
ID : 5
Format : UTF-8
Codec ID : S_TEXT/UTF8
Codec ID/Info : UTF-8 Plain Text
Duration : 1 h 47 min
Bit rate : 37 b/s
Count of elements : 702
Stream size : 29.4 KiB (0%)
Title : Full
Language : Russian
Default : No
Forced : No

Text #3
ID : 6
Format : UTF-8
Codec ID : S_TEXT/UTF8
Codec ID/Info : UTF-8 Plain Text
Duration : 1 h 40 min
Bit rate : 25 b/s
Count of elements : 715
Stream size : 19.0 KiB (0%)
Title : Full
Language : English
Default : No
Forced : No

Text #4
ID : 7
Format : UTF-8
Codec ID : S_TEXT/UTF8
Codec ID/Info : UTF-8 Plain Text
Duration : 1 h 46 min
Bit rate : 31 b/s
Count of elements : 1021
Stream size : 25.0 KiB (0%)
Title : SDH
Language : English
Default : No
Forced : No

Text #5
ID : 8
Format : UTF-8
Codec ID : S_TEXT/UTF8
Codec ID/Info : UTF-8 Plain Text
Duration : 1 h 46 min
Bit rate : 81 b/s
Count of elements : 1012
Stream size : 63.4 KiB (0%)
Title : SDH Colored
Language : English
Default : No
Forced : No

Menu
00:00:00.000 : en:Chapter 1
00:11:25.351 : en:Chapter 2
00:20:35.067 : en:Chapter 3
00:30:33.290 : en:Chapter 4
00:42:03.604 : en:Chapter 5
00:52:39.239 : en:Chapter 6
01:03:12.497 : en:Chapter 7
01:13:14.682 : en:Chapter 8
01:23:55.614 : en:Chapter 9
01:33:19.302 : en:Chapter 10
01:43:27.618 : en:Chapter 11




Скачать Проклятие.Аннабель.Зарождение.зла.Annabelle.Creation.(Дэвид.Ф.Сандберг).[2017.ужасы.триллер.детектив.BDRip].[1080p].[DUB].[Лицензия.iTunes].torrent без регистрации
Золото ЗОЛОТАЯ РАЗДАЧА! СКАЧАННОЕ НЕ ЗАСЧИТЫВАЕТСЯ! Золото
Дата: Зарегистрирован   [ Тип: внутренний ] Как тут cкачать?
MAGNET ссылка
MAGNET ссылка


Скачать .torrent

44 KB

Статус: проверено DHT
Скачан: торрент - 253 раз, раздача полностью - 29 раз
Размер: 8,68 GB
Оценка:  5 (Голосов: 2)
Поблагодарили: 8
Поделиться ссылкой на эту раздачу с друзьями:
В контактеFacebookОдноклассникиTwitterLivejournalМой МирLiveinternet
 

 

leon030982

[] 

Цитата:

[Лицензия / iTunes]
 
Показать сообщения:    


Вы не можете начинать темы
Вы не можете отвечать на сообщения
Вы не можете редактировать свои сообщения
Вы не можете удалять свои сообщения
Вы не можете голосовать в опросах
Вы не можете прикреплять файлы к сообщениям
Вы можете скачивать файлы