Loading...
Error

Скачать Одарённые / The Gifted (Сезон 01, серии 01-09 из 10) (Брайан Сингер) [2017, фантастика, фэнтези, боевик, WEB-DLRip] [MVO] (Profix Media) торрент без регистрации

Статистика раздачи
Размер:  3,42 GB   |    Скачан:  29 раз
Сидов:  2  [  0 KB/s  ]   Личеров:  1  [  0 KB/s  ]  
 
 
 
Автор Сообщение

leon030982

[] 

Одаренные / The Gifted



Год выпуска • 2017
Страна • США
Жанр • фантастика, фэнтези, боевик
Продолжительность • 1 x ~ 00:45:00
ПереводПрофессиональный (многоголосый, закадровый) "Profix Media"

Создатель • Брайан Сингер

В ролях • Колин Битон, Эми Акер, Стеффан Аргус, Билли Блэр, Джейсон Бремер, Пол Каревей, Эмма Дюмон, Дэйл Годбольдо и др.

Описание • Сюжет строится вокруг двух обычных родителей, чьи дети открывают в себе сверхъестественные способности. Семья вынуждена скрываться от правительства, недружелюбно настроенного по отношению к юным мутантам, и присоединяется к подпольной организации суперлюдей.



Качество: WEB-DLRip
Формат: AVI
Видео: XviD, ~ 1130 Кбит/с, 720х400, 23.976 fps
Аудио: 48 kHz, MP3, 2 Ch, 256 kbps
Субтитры: нет

Торент обновлен! добавлена 9-я серия
General
Complete name : E:\The.Gifted.S01.WEBRip.Profix.Media\The.Gifted.S01E01.WEBRip.Profix.Media.avi
Format : AVI
Format/Info : Audio Video Interleave
File size : 371 MiB
Duration : 45mn 57s
Overall bit rate : 1 230 Kbps
Writing application : Lavf57.25.100

Video
ID : 0
Format : xvid
Codec ID : xvid
Duration : 45mn 57s
Bit rate : 920 Kbps
Width : 720 pixels
Height : 400 pixels
Display aspect ratio : 16:9
Frame rate : 23.976 fps
Bits/(Pixel*Frame) : 0.119
Stream size : 270 MiB (73%)
Title : Video Track

Audio
ID : 1
Format : MPEG Audio
Format version : Version 1
Format profile : Layer 3
Mode : Joint stereo
Codec ID : 55
Codec ID/Hint : MP3
Duration : 45mn 57s
Bit rate mode : Constant
Bit rate : 256 Kbps
Channel(s) : 2 channels
Sampling rate : 48.0 KHz
Compression mode : Lossy
Stream size : 84.1 MiB (23%)
Alignment : Aligned on interleaves
Title : Audio Track
Внимание! Раздача ведётся путём добавления новых серий; при каждом добавлении создётся новый торрент. Чтобы начать докачку новой серии, пользователям необходимо сделать следующее:
Остановить скачивание.
Удалить старый торрент у себя из клиента (старые серии удалять не надо).
Скачать новый торрент и запустить его у себя в клиенте вместо старого, при этом указать клиенту путь в старую папку куда и должно происходить скачивание новых серий.
Ваш клиент при этом должен произвести хеширование (проверку) старой папки (если не производит сам - помогите ему сделать это), и будет докачивать только те серии которых у вас ещё нет. Старые серии при этом не удаляются, а продолжают раздаваться!
Eсли вы уже удалили старые серии, то предотвратить повторную закачку старых серий можно, отжав галочку в соответсвующих местах при запуске нового торрента. По возможности, желательно не удалять старые серии как можно дольше чтобы релизёр не столько продолжал раздавать старые серии, а смог сконцентрироваться на новых.




Скачать Одарённые.The.Gifted.(Сезон.01.серии.01-09.из.10).(Брайан.Сингер).[2017.фантастика.фэнтези.боевик.WEB-DLRip].[MVO].(Profix.Media).torrent без регистрации
Золото ЗОЛОТАЯ РАЗДАЧА! СКАЧАННОЕ НЕ ЗАСЧИТЫВАЕТСЯ! Золото
Дата: Зарегистрирован   [ Тип: внутренний ] Как тут cкачать?
MAGNET ссылка
MAGNET ссылка


Скачать .torrent

19 KB

Статус: проверено DHT
Скачан: торрент - 29 раз, раздача полностью - 1 раз
Размер: 3,42 GB
Оценка:  - (Голосов: 0)
Поблагодарили: 1
Поделиться ссылкой на эту раздачу с друзьями:
В контактеFacebookОдноклассникиTwitterLivejournalМой МирLiveinternet
 

 
Показать сообщения:    


Вы не можете начинать темы
Вы не можете отвечать на сообщения
Вы не можете редактировать свои сообщения
Вы не можете удалять свои сообщения
Вы не можете голосовать в опросах
Вы не можете прикреплять файлы к сообщениям
Вы можете скачивать файлы