Loading...
Error

Скачать Скуби-ду! На диком западе / Scooby-Doo! Shaggy's Showdown (Мэтт Питерс) [2017, мультфильм, комедия, детектив, семейный, вестерн, полнометражный, WEB-DL] [1080p] [MVO (GreenРай Studio)]+[Eng] торрент без регистрации

Статистика раздачи
Размер:  3,18 GB   |    Скачан:  107 раз
Сидов:  1  [  0 KB/s  ]  
 
 
 
Автор Сообщение

МихаНЕзатор

[] 

Информация о фильме
Название: Скуби-ду! На диком западе
Оригинальное название: Scooby-Doo! Shaggy's Showdown
Год выпуска: 2017
Жанр: Мультфильм, комедия, детектив, семейный, вестерн, полнометражный
Режиссер: Мэтт Питерс

В ролях: Фрэнк Уэлкер, Грей ДеЛайл, Мэттью Лиллард, Кейт Микуччи, Карлос Аласраки, Макс Чарльз, Гэри Коул, Джессика ДиЧикко, Таня Гунади, Эрик Ладин

Описание: Главные герои отправляются в уникальное место под названием «Сумасшедшее Ранчо Q-Чуваков». Место выбрано неслучайно, ведь оно когда-то принадлежало кузену Шэгги, пропавшему без вести. Скуби-ду и команда хотят узнать, что же произошло с Тони на самом деле. Оказавшись на месте, они встречают местных жителей, которые, пугаясь Шэгги, разбегаются в разные стороны, путая его с призраком.



Выпущено: США, Warner Bros. Animation
Продолжительность: 01:20:01
Озвучивание: Любительское многоголосое (GreenРай Studio)

Файл
Видео: AVC/H.264, 1916x1076 (16:9), 23.976 fps, 5009 Kbps (0.101 bit/pixel)
Аудио #1: AC-3, 48.0 KHz, 2 ch, 192 Kbps, CBR (Русский)
Аудио #2: AC-3, 48.0 KHz, 6 ch, 384 Kbps, CBR (Английский)

АНОНСЫ ПОПУЛЯРНЫХ РАЗДАЧ
Complete name : Scooby-Doo! Shaggy's Showdown.2017.WEB-DL.1080-LQ.mkv
Format : Matroska
Format version : Version 4 / Version 2
File size : 3.18 GiB
Duration : 1h 20mn
Overall bit rate : 5 698 Kbps
Movie name : Scooby-Doo! Shaggy's Showdown (2017)
Encoded date : UTC 2017-08-13 16:31:07
Writing application : mkvmerge v7.7.0 ('Six Voices') 64bit built on Feb 28 2015 23:39:33
Writing library : libebml v1.3.1 + libmatroska v1.4.2
DURATION : 01:20:01.440000000
NUMBER_OF_FRAMES : 150045
NUMBER_OF_BYTES : 115234560
_STATISTICS_WRITING_APP : mkvmerge v7.7.0 ('Six Voices') 64bit built on Feb 28 2015 23:39:33
_STATISTICS_WRITING_DATE_UT : 2017-08-13 16:31:07
_STATISTICS_TAGS : BPS DURATION NUMBER_OF_FRAMES NUMBER_OF_BYTES

Video
ID : 1
Format : AVC
Format/Info : Advanced Video Codec
Format profile : High@L4
Format settings, CABAC : Yes
Format settings, ReFrames : 4 frames
Codec ID : V_MPEG4/ISO/AVC
Duration : 1h 20mn
Bit rate : 5 009 Kbps
Width : 1 916 pixels
Height : 1 076 pixels
Display aspect ratio : 16:9
Frame rate mode : Constant
Frame rate : 23.976 fps
Color space : YUV
Chroma subsampling : 4:2:0
Bit depth : 8 bits
Scan type : Progressive
Bits/(Pixel*Frame) : 0.101
Stream size : 2.80 GiB (88%)
Language : English
Default : Yes
Forced : No
Color range : Limited
Color primaries : BT.709
Transfer characteristics : BT.709
Matrix coefficients : BT.709

Audio #1
ID : 2
Format : AC-3
Format/Info : Audio Coding 3
Mode extension : CM (complete main)
Format settings, Endianness : Big
Codec ID : A_AC3
Duration : 1h 20mn
Bit rate mode : Constant
Bit rate : 192 Kbps
Channel(s) : 2 channels
Channel positions : Front: L R
Sampling rate : 48.0 KHz
Compression mode : Lossy
Stream size : 110 MiB (3%)
Title : (GreenРай Studio)
Language : Russian
Default : Yes
Forced : No

Audio #2
ID : 3
Format : AC-3
Format/Info : Audio Coding 3
Mode extension : CM (complete main)
Format settings, Endianness : Big
Codec ID : A_AC3
Duration : 1h 20mn
Bit rate mode : Constant
Bit rate : 384 Kbps
Channel(s) : 6 channels
Channel positions : Front: L C R, Side: L R, LFE
Sampling rate : 48.0 KHz
Compression mode : Lossy
Stream size : 220 MiB (7%)
Language : English
Default : No
Forced : No

Text
ID : 4
Format : UTF-8
Codec ID : S_TEXT/UTF8
Codec ID/Info : UTF-8 Plain Text
Language : English
Default : No
Forced : No



Скачать Скуби-ду!.На.диком.западе.Scooby-Doo!.Shaggy's.Showdown.(Мэтт.Питерс).[2017.мультфильм.комедия.детектив.семейный.вестерн.полнометражный.WEB-DL].[1080p].[MVO.(GreenРай.Studio)]+[Eng].torrent без регистрации
Золото ЗОЛОТАЯ РАЗДАЧА! СКАЧАННОЕ НЕ ЗАСЧИТЫВАЕТСЯ! Золото
Дата: Зарегистрирован   [ Тип: внутренний ] Как тут cкачать?
MAGNET ссылка
MAGNET ссылка


Скачать .torrent

17 KB

Статус: проверено DHT
Скачан: торрент - 107 раз, раздача полностью - 107 раз
Размер: 3,18 GB
Оценка:  5 (Голосов: 2)
Поблагодарили: 5
Поделиться ссылкой на эту раздачу с друзьями:
В контактеFacebookОдноклассникиTwitterLivejournalМой МирLiveinternet
 

 
Показать сообщения:    


Вы не можете начинать темы
Вы не можете отвечать на сообщения
Вы не можете редактировать свои сообщения
Вы не можете удалять свои сообщения
Вы не можете голосовать в опросах
Вы не можете прикреплять файлы к сообщениям
Вы можете скачивать файлы