Loading...
Error

Скачать Сотовый / Cellular (Дэвид Р. Эллис) [2004, боевик, триллер, криминал, HDRip-AVC] [Dub]+[Sub Rus x2, Eng]x3 торрент без регистрации

Статистика раздачи
Размер:  745 MB   |    Скачан:  9 раз
Сидов:  10  [  0 KB/s  ]  

 
 
 
Автор Сообщение

Marsianka

[] 

«Когда связь имеет значение»

Информация о фильме
Название: Сотовый
Оригинальное название: Cellular
Год выхода: 2004
Жанр: боевик, триллер, криминал
Режиссер: Дэвид Р. Эллис / David R. Ellis
В ролях: Ким Бейсингер, Крис Эванс, Джейсон Стэйтем, Уильям Х. Мэйси, Ноа Эммерик, Адам Тейлор Гордон, Ричард Берджи, Валери Крус, Джессика Бил, Эрик Этебари

О фильме: Джессику похищают и запирают на чердаке. Вся её надежда на неисправный, едва работающий телефон. Позвонив по первому попавшемуся номеру, она сообщает Райану (случайному молодому человеку) о своем похищении и о том, что её хотят убить, а также и её мужа и сына, за которыми теперь отправились похитители.

Она не знает, где находится, а у единственного возможного спасителя скоро сядет батарейка телефона. Теперь Райану, знакомому с Джессикой только по ее паническому голосу, придется бороться со временем, которого остается все меньше, и постоянными проблемами со связью, и лицом к лицу столкнуться с убийством и обманом.



Страна: США, Германия
Студия: Electric Entertainment, LFG Film Produktions, New Line Cinema
Продолжительность: 01:33:59
Перевод: Профессиональный (полное дублирование)

Файл
Кодек: x264
Качество: HDRip-AVC
Видео: MPEG-4 AVC, 768x432 (16:9) at 23.976 fps, ~979 kbps
Аудио: AAC-LC, 2 ch, 48 kHz, 128 kbps
Субтитры: русские (полные (2 вида)), английские

Семпл
General
Unique ID : 171300759255120457835575893177909005626 (0x80DF53802D3943D9B5603AFB00A24D3A)
Complete name : C:UsersDownloadsCellular.2004.HDRip-AVC.mkv
Format : Matroska
Format version : Version 4 / Version 2
File size : 745 MiB
Duration : 1 h 33 min
Overall bit rate : 1 109 kb/s
Encoded date : UTC 2017-10-11 10:32:09
Writing application : mkvmerge v9.6.0 ('Slave To Your Mind') 64bit
Writing library : libebml v1.3.4 + libmatroska v1.4.5

Video
ID : 1
Format : AVC
Format/Info : Advanced Video Codec
Format profile : High@L4.1
Format settings : CABAC / 8 Ref Frames
Format settings, CABAC : Yes
Format settings, RefFrames : 8 frames
Codec ID : V_MPEG4/ISO/AVC
Duration : 1 h 33 min
Bit rate : 979 kb/s
Width : 768 pixels
Height : 432 pixels
Display aspect ratio : 16:9
Frame rate mode : Constant
Frame rate : 23.976 (24000/1001) FPS
Color space : YUV
Chroma subsampling : 4:2:0
Bit depth : 8 bits
Scan type : Progressive
Bits/(Pixel*Frame) : 0.123
Stream size : 658 MiB (88%)
Writing library : x264 core 146 r2538 121396c
Encoding settings : cabac=1 / ref=8 / deblock=1:-2:-2 / analyse=0x3:0x113 / me=umh / subme=11 / psy=1 / psy_rd=1.00:0.10 / mixed_ref=1 / me_range=32 / chroma_me=1 / trellis=2 / 8x8dct=1 / cqm=0 / deadzone=21,11 / fast_pskip=0 / chroma_qp_offset=-3 / threads=6 / lookahead_threads=1 / sliced_threads=0 / nr=0 / decimate=0 / interlaced=0 / bluray_compat=0 / constrained_intra=0 / bframes=10 / b_pyramid=2 / b_adapt=2 / b_bias=0 / direct=3 / weightb=1 / open_gop=0 / weightp=2 / keyint=240 / keyint_min=23 / scenecut=40 / intra_refresh=0 / rc_lookahead=40 / rc=2pass / mbtree=0 / bitrate=979 / ratetol=1.0 / qcomp=0.60 / qpmin=0 / qpmax=69 / qpstep=4 / cplxblur=20.0 / qblur=0.5 / vbv_maxrate=50000 / vbv_bufsize=62500 / nal_hrd=none / filler=0 / ip_ratio=1.40 / pb_ratio=1.30 / aq=2:1.00
Default : Yes
Forced : No

Audio
ID : 2
Format : AAC
Format/Info : Advanced Audio Codec
Format profile : LC
Codec ID : A_AAC-2
Duration : 1 h 33 min
Bit rate : 128 kb/s
Channel(s) : 2 channels
Channel positions : Front: L R
Sampling rate : 48.0 kHz
Frame rate : 46.875 FPS (1024 SPF)
Compression mode : Lossy
Delay relative to video : 9 ms
Stream size : 86.1 MiB (12%)
Default : Yes
Forced : No

Text #1
ID : 3
Format : UTF-8
Codec ID : S_TEXT/UTF8
Codec ID/Info : UTF-8 Plain Text
Duration : 1 h 29 min
Bit rate : 74 b/s
Count of elements : 904
Stream size : 48.8 KiB (0%)
Title : Full
Language : Russian
Default : Yes
Forced : No

Text #2
ID : 4
Format : UTF-8
Codec ID : S_TEXT/UTF8
Codec ID/Info : UTF-8 Plain Text
Duration : 1 h 27 min
Bit rate : 88 b/s
Count of elements : 1065
Stream size : 56.4 KiB (0%)
Title : Full [Tycoon-Studio]
Language : Russian
Default : No
Forced : No

Text #3
ID : 5
Format : UTF-8
Codec ID : S_TEXT/UTF8
Codec ID/Info : UTF-8 Plain Text
Duration : 1 h 26 min
Bit rate : 54 b/s
Count of elements : 1097
Stream size : 34.8 KiB (0%)
Title : Full
Language : English
Default : No
Forced : No




Скачать Сотовый.Cellular.(Дэвид.Р.Эллис).[2004.боевик.триллер.криминал.HDRip-AVC].[Dub]+[Sub.Rus.x2.Eng]x3.torrent без регистрации
Золото ЗОЛОТАЯ РАЗДАЧА! СКАЧАННОЕ НЕ ЗАСЧИТЫВАЕТСЯ! Золото
Дата: Зарегистрирован   [ Тип: внешний ] Как тут cкачать?
MAGNET ссылка
MAGNET ссылка


Скачать .torrent

15 KB

Статус: проверено DHT
Скачан: торрент - 9 раз, раздача полностью - 5 раз
Размер: 745 MB
Оценка:  - (Голосов: 0)
Поблагодарили: 0
Поделиться ссылкой на эту раздачу с друзьями:
В контактеFacebookОдноклассникиTwitterLivejournalМой МирLiveinternet
 

 
Показать сообщения:    


Вы не можете начинать темы
Вы не можете отвечать на сообщения
Вы не можете редактировать свои сообщения
Вы не можете удалять свои сообщения
Вы не можете голосовать в опросах
Вы не можете прикреплять файлы к сообщениям
Вы можете скачивать файлы