Loading...
Error

Скачать (POP) Thomas Anders - Концерт в Германии [2017, WEBRip] [720p] торрент без регистрации

Статистика раздачи
Размер:  1,12 GB   |    Скачан:  8 раз
Сидов:  16  [  0 KB/s  ]   Личеров:  1  [  0 KB/s  ]  

 
 
 
Автор Сообщение

Marsianka

[] 

Исполнитель/Группа: Thomas Anders
Жанр: POP
Год выпуска: 2017
Продолжительность: 00:33:30

Формат: MKV
Качество: WEBRip 720p
Видео кодек: H.264
Аудио кодек: AAC
Видео: H.264 1280x720 (16:9) 25fps 4 600 Kbps
Аудио: AAC 48000Hz, 2ch, 192 kbps
1.Der beste Tag meines Lebens
2.Sternenregen
3.Das Lied das Leben heist
4.Lady Lai
5.We Still Have Dreams
6.All I Have
7.When Will I See You Again
8.You're My Heart, You're My Soul
9.Brother Louie
10.You're My Heart, You're My Soul + Billy Jean
11.Cheri Cheri Lady
Complete name : D:MusicVideoThomas_Anders_2017.mkv
Format : Matroska
Format version : Version 4 / Version 2
File size : 1.12 GiB
Duration : 33 min 30 s
Overall bit rate : 4 806 kb/s
Encoded date : UTC 2017-10-12 00:41:19
Writing application : mkvmerge v8.3.0 ('Over the Horizon') 64bit
Writing library : libebml v1.3.1 + libmatroska v1.4.2

Video
ID : 1
Format : AVC
Format/Info : Advanced Video Codec
Format profile : Main@L4.1
Format settings, CABAC : Yes
Format settings, ReFrames : 4 frames
Codec ID : V_MPEG4/ISO/AVC
Duration : 33 min 30 s
Bit rate : 4 614 kb/s
Width : 1 280 pixels
Height : 720 pixels
Display aspect ratio : 16:9
Frame rate mode : Constant
Frame rate : 25.000 FPS
Standard : PAL
Color space : YUV
Chroma subsampling : 4:2:0
Bit depth : 8 bits
Scan type : Progressive
Bits/(Pixel*Frame) : 0.200
Stream size : 1.08 GiB (96%)
Language : English
Default : Yes
Forced : No
Color range : Limited
Color primaries : BT.709
Transfer characteristics : BT.709
Matrix coefficients : BT.709

Audio
ID : 2
Format : AAC
Format/Info : Advanced Audio Codec
Format profile : LC
Codec ID : A_AAC
Duration : 33 min 30 s
Bit rate : 192 kb/s
Channel(s) : 2 channels
Channel positions : Front: L R
Sampling rate : 48.0 kHz
Frame rate : 46.875 FPS (1024 spf)
Compression mode : Lossy
Stream size : 45.4 MiB (4%)
Language : English
Default : Yes
Forced : No




Скачать Thomas.Anders.-.Концерт.в.Германии.[2017.WEBRip].[720p].torrent без регистрации
Золото ЗОЛОТАЯ РАЗДАЧА! СКАЧАННОЕ НЕ ЗАСЧИТЫВАЕТСЯ! Золото
Дата: Зарегистрирован   [ Тип: внешний ] Как тут cкачать?
MAGNET ссылка
MAGNET ссылка


Скачать .torrent

46 KB

Статус: проверено DHT
Скачан: торрент - 8 раз, раздача полностью - 3 раз
Размер: 1,12 GB
Оценка:  - (Голосов: 0)
Поблагодарили: 1
Поделиться ссылкой на эту раздачу с друзьями:
В контактеFacebookОдноклассникиTwitterLivejournalМой МирLiveinternet
 

 
Показать сообщения:    


Вы не можете начинать темы
Вы не можете отвечать на сообщения
Вы не можете редактировать свои сообщения
Вы не можете удалять свои сообщения
Вы не можете голосовать в опросах
Вы не можете прикреплять файлы к сообщениям
Вы можете скачивать файлы