Loading...
Error

Скачать Смертельное Оружие / Lethal Weapon (Сезон 02, серии 01-04 из 22) (Стив Бойум, МакДжи) [2017, боевик, триллер, драма, криминал, WEB-DLRip] [MVO] (Profix Media) торрент без регистрации

Статистика раздачи
Размер:  2,11 GB   |    Скачан:  13 раз
Сидов:  1  [  0 KB/s  ]   Личеров:  1  [  0 KB/s  ]  

 
 
 
Автор Сообщение

leon030982

[] 

Смертельное Оружие | Lethal Weapon

Год выпуска: 2017
Страна: США
Жанр: Боевик, триллер, драма, криминал
Продолжительность: ~ 00:45:00
Перевод: Профессиональный (многоголосый закадровый) | Profix Media

Режиссёр: Стив Бойум, МакДжи

В ролях: Клейн Кроуфорд, Дэймон Уайанс, Джордана Брюстер, Данте Браун, Джонатан Фернандес, Чандлер Кинни, Кевин Рам, Киша Шарп, Флориана Лима и др.

Описание: Сюжет сосредоточится на копе из Техаса, который, потеряв жену и ребёнка, перебирается на службу в Лос-Анджелес. Там ему суждено стать напарником уже немолодого детектива, которому из-за недавнего инфаркта врачи прописали избегать стрессов. Но с новым коллегой, буквально лезущим под пули, сделать это будет попросту невозможно.



Качество: WEB-DLRip
Формат: AVI
Видео: XviD, ~ 1400 Кбит/с, 720х400, 23.976 fps
Аудио: MP3 | 48 KHz | 2 Ch | ~256 kbps
Субтитры: нет

Добавлена 4-я серия!
General
Complete name : E:\Lethal.Weapon.S02.WEBRip.Profix.Media\Lethal.Weapon.S02E03.WEBRip.Profix.Media.avi
Format : AVI
Format/Info : Audio Video Interleave
File size : 516 MiB
Duration : 44mn 12s
Overall bit rate : 1 631 Kbps
Writing application : Lavf57.25.100

Video
ID : 0
Format : xvid
Codec ID : xvid
Duration : 44mn 12s
Bit rate : 1 301 Kbps
Width : 720 pixels
Height : 400 pixels
Display aspect ratio : 16:9
Frame rate : 23.976 fps
Bits/(Pixel*Frame) : 0.188
Stream size : 412 MiB (80%)
Title : Video Track

Audio
ID : 1
Format : MPEG Audio
Format version : Version 1
Format profile : Layer 3
Mode : Joint stereo
Codec ID : 55
Codec ID/Hint : MP3
Duration : 44mn 12s
Bit rate mode : Constant
Bit rate : 256 Kbps
Channel(s) : 2 channels
Sampling rate : 48.0 KHz
Compression mode : Lossy
Stream size : 81.0 MiB (16%)
Alignment : Aligned on interleaves
Title : Audio Track
Когда раздача ведётся путём добавления новых серий, при каждом добавлении создётся новый торрент. Чтобы начать докачку новой серии, пользователям необходимо сделать следующее:
(1) остановить скачивание,
(2) удалить старый торрент у себя из клиента (старые серии удалять не надо),
(3) скачать новый торрент и запустить его у себя в клиенте вместо старого, при этом указать клиенту путь в старую папку, куда и должно происходить скачивание новых серий.
Ваш клиент при этом должен произвести хеширование (проверку) старой папки (если не производит сам - помогите ему сделать это), и будет докачивать только те серии, которых у вас ещё нет. Старые серии при этом не удаляются, а продолжают раздаваться!
Eсли вы уже удалили старые серии, то предотвратить повторную закачку старых серий можно, отжав галочку в соответсвующих местах при запуске нового торрента. По возможности, желательно не удалять старые серии как можно дольше, чтобы релизёр не столько продолжал раздавать старые серии, а смог сконцентрироваться на новых.




Скачать Смертельное.Оружие.Lethal.Weapon.(Сезон.02.серии.01-04.из.22).(Стив.Бойум.МакДжи).[2017.боевик.триллер.драма.криминал.WEB-DLRip].[MVO].(Profix.Media).torrent без регистрации
Золото ЗОЛОТАЯ РАЗДАЧА! СКАЧАННОЕ НЕ ЗАСЧИТЫВАЕТСЯ! Золото
Дата: Зарегистрирован   [ Тип: внутренний ] Как тут cкачать?
MAGNET ссылка
MAGNET ссылка


Скачать .torrent

12 KB

Статус: проверено DHT
Скачан: торрент - 13 раз, раздача полностью - 1 раз
Размер: 2,11 GB
Оценка:  - (Голосов: 0)
Поблагодарили: 0
Поделиться ссылкой на эту раздачу с друзьями:
В контактеFacebookОдноклассникиTwitterLivejournalМой МирLiveinternet
 

 
Показать сообщения:    


Вы не можете начинать темы
Вы не можете отвечать на сообщения
Вы не можете редактировать свои сообщения
Вы не можете удалять свои сообщения
Вы не можете голосовать в опросах
Вы не можете прикреплять файлы к сообщениям
Вы можете скачивать файлы