Loading...
Error

Скачать Сделано в Америке / American Made (Даг Лайман) [2017, Боевик, триллер, драма, комедия, криминал, биография, история, BDRip] [1080p] [DUB] [Лицензия / iTunes] торрент без регистрации

Статистика раздачи
Размер:  10,06 GB   |    Скачан:  450 раз
Сидов:  20  [  1 MB/s  ]  
 
 
 
Автор Сообщение

leon030982

[] 

Сделано в Америке / American Made



Год выпуска: 2017
Страна: США
Жанр: Боевик, триллер, драма, комедия, криминал, биография, история
Продолжительность: 01:54:58
Перевод: Дубляж [Лицензия / iTunes]
Субтитры: Английские

Режиссер: Даг Лайман

В ролях: Том Круз, Донал Глисон, Сара Райт, Джесси Племонс, Калеб Лэндри Джонс, Лола Кёрк, Джейма Мейс, Алехандро Эдда, Бенито Мартинес, Э. Роджер Митчелл

Описание: Он был самым юным пилотом Боинга 747 в США, а уже через несколько лет стал одним из богатейших людей в Америке. Его стиль жизни был столь же экстремальным, как и его бизнес. Закрытые приемы, роскошные блондинки, крутые тачки и рисковые сделки. Он обладал талантом делать деньги из воздуха.



Качество: BDRip (1080p)
Формат: MKV
Видео кодек: AVC
Аудио кодек: АС3
Видео: MPEG-4 AVC, 11.5 Mбит/с, 1920x1036, 23.976 fps
Аудио: 48.0 kHz, AC3 Dolby Digital, 6 ch, ~384 kbps - DUB
Аудио: 48.0 kHz, AC3 Dolby Digital, 6 ch, ~640 kbps - ENG

Торент обновлен! [Лицензия / iTunes]
General
Unique ID : 232479772653885138232639086257781289219 (0xAEE5F9BE6BCD52298AEC3E82D1C33103)
Complete name : F:\American.Made.2017.D.BDRip.1080p.ExKinoRay.mkv
Format : Matroska
Format version : Version 4 / Version 2
File size : 10.1 GiB
Duration : 1 h 54 min
Overall bit rate : 12.5 Mb/s
Movie name : American Made 2017 from ExKinoRay
Encoded date : UTC 2017-12-06 19:24:35
Writing application : mkvmerge v18.0.0 ('Apricity') 64-bit
Writing library : libebml v1.3.5 + libmatroska v1.4.8

Video
ID : 1
Format : AVC
Format/Info : Advanced Video Codec
Format profile : High@L4.1
Format settings : CABAC / 4 Ref Frames
Format settings, CABAC : Yes
Format settings, RefFrames : 4 frames
Codec ID : V_MPEG4/ISO/AVC
Duration : 1 h 54 min
Bit rate : 11.5 Mb/s
Width : 1 920 pixels
Height : 1 036 pixels
Display aspect ratio : 1.85:1
Frame rate mode : Constant
Frame rate : 23.976 (24000/1001) FPS
Color space : YUV
Chroma subsampling : 4:2:0
Bit depth : 8 bits
Scan type : Progressive
Bits/(Pixel*Frame) : 0.241
Stream size : 9.04 GiB (90%)
Writing library : x264 core 148 r2705 3f5ed56
Encoding settings : cabac=1 / ref=4 / deblock=1:-3:-3 / analyse=0x3:0x133 / me=umh / subme=11 / psy=1 / psy_rd=1.05:0.05 / mixed_ref=1 / me_range=48 / chroma_me=1 / trellis=2 / 8x8dct=1 / cqm=0 / deadzone=21,11 / fast_pskip=0 / chroma_qp_offset=-3 / threads=32 / lookahead_threads=4 / sliced_threads=0 / nr=0 / decimate=0 / interlaced=0 / bluray_compat=0 / constrained_intra=0 / bframes=10 / b_pyramid=2 / b_adapt=2 / b_bias=0 / direct=3 / weightb=1 / open_gop=0 / weightp=2 / keyint=240 / keyint_min=23 / scenecut=40 / intra_refresh=0 / rc_lookahead=50 / rc=2pass / mbtree=0 / bitrate=11500 / ratetol=1.0 / qcomp=0.60 / qpmin=0 / qpmax=69 / qpstep=4 / cplxblur=20.0 / qblur=0.5 / vbv_maxrate=50000 / vbv_bufsize=62500 / nal_hrd=none / filler=0 / ip_ratio=1.40 / pb_ratio=1.30 / aq=3:0.80
Language : English
Default : Yes
Forced : No

Audio #1
ID : 2
Format : AC-3
Format/Info : Audio Coding 3
Format settings, Endianness : Big
Codec ID : A_AC3
Duration : 1 h 54 min
Bit rate mode : Constant
Bit rate : 384 kb/s
Channel(s) : 6 channels
Channel positions : Front: L C R, Side: L R, LFE
Sampling rate : 48.0 kHz
Frame rate : 31.250 FPS (1536 SPF)
Bit depth : 16 bits
Compression mode : Lossy
Stream size : 316 MiB (3%)
Title : iTunes
Language : Portuguese
Service kind : Complete Main
Default : Yes
Forced : No

Audio #2
ID : 3
Format : AC-3
Format/Info : Audio Coding 3
Format settings, Endianness : Big
Codec ID : A_AC3
Duration : 1 h 54 min
Bit rate mode : Constant
Bit rate : 640 kb/s
Channel(s) : 6 channels
Channel positions : Front: L C R, Side: L R, LFE
Sampling rate : 48.0 kHz
Frame rate : 31.250 FPS (1536 SPF)
Bit depth : 16 bits
Compression mode : Lossy
Stream size : 526 MiB (5%)
Title : Original
Language : English
Service kind : Complete Main
Default : No
Forced : No

Text
ID : 4
Format : UTF-8
Codec ID : S_TEXT/UTF8
Codec ID/Info : UTF-8 Plain Text
Title : SDH
Language : English
Default : No
Forced : No

Menu
00:00:00.000 : en:Chapter 1
00:06:00.318 : en:Chapter 2
00:10:42.516 : en:Chapter 3
00:14:36.500 : en:Chapter 4
00:21:19.611 : en:Chapter 5
00:27:25.226 : en:Chapter 6
00:33:47.692 : en:Chapter 7
00:41:02.585 : en:Chapter 8
00:46:16.023 : en:Chapter 9
00:51:57.114 : en:Chapter 10
00:54:59.713 : en:Chapter 11
00:59:58.177 : en:Chapter 12
01:07:29.837 : en:Chapter 13
01:13:06.507 : en:Chapter 14
01:17:12.878 : en:Chapter 15
01:23:21.329 : en:Chapter 16
01:26:16.713 : en:Chapter 17
01:33:34.483 : en:Chapter 18
01:38:39.455 : en:Chapter 19
01:46:16.953 : en:Chapter 20




Скачать Сделано.в.Америке.American.Made.(Даг.Лайман).[2017.Боевик.триллер.драма.комедия.криминал.биография.история.BDRip].[1080p].[DUB].[Лицензия.iTunes].torrent без регистрации
Золото ЗОЛОТАЯ РАЗДАЧА! СКАЧАННОЕ НЕ ЗАСЧИТЫВАЕТСЯ! Золото
Дата: Зарегистрирован   [ Тип: внутренний ] Как тут cкачать?
MAGNET ссылка
MAGNET ссылка


Скачать .torrent

51 KB

Статус: проверено DHT
Скачан: торрент - 450 раз, раздача полностью - 261 раз
Размер: 10,06 GB
Оценка:  5 (Голосов: 3)
Поблагодарили: 13
Поделиться ссылкой на эту раздачу с друзьями:
В контактеFacebookОдноклассникиTwitterLivejournalМой МирLiveinternet
 

 

leon030982

[] 

Цитата:

[Лицензия / iTunes]
 

valdas-kdn

[] 

kacestvo video otstoi. kak v tumane, net smysla kaciat full hd.
 
Показать сообщения:    


Вы не можете начинать темы
Вы не можете отвечать на сообщения
Вы не можете редактировать свои сообщения
Вы не можете удалять свои сообщения
Вы не можете голосовать в опросах
Вы не можете прикреплять файлы к сообщениям
Вы можете скачивать файлы