Loading...
Error

Скачать Скрытые / The Hidden (Джек Шолдер) [1987, ужасы, фантастика, боевик, триллер, криминал, BDRip] [1080p] [DVO]+[AVO (Гаврилов)]+[Eng]+[Sub Eng] торрент без регистрации

Статистика раздачи
Размер:  10,1 GB   |    Скачан:  7 раз
Сидов:  16  [  0 KB/s  ]  

 
 
 
Автор Сообщение

Marsianka

[] 

Название: Скрытые
Оригинальное название: The Hidden
Год выхода: 1987
Страна: США
Студия: Heron Communications, Mega Entertainment, New Line Cinema
Продолжительность: 01:37:04
Жанр: ужасы, фантастика, боевик, триллер, криминал

Режиссер: Джек Шолдер
В ролях: Кайл МакЛоклен, Майкл Нури, Клаудия Кристиан, Кларенс Фелдер, Клу Гулагер, Эд О’Росс, Уильям Бойетт, Ричард Брукс, Ларри Седар, Кэтрин Кэннон, ...

Перевод:
- Профессиональный (двуголосый, закадровый) ?
- Авторский (одноголосый, закадровый) Гаврилов Андрей Юрьевич

О фильме: Отдел по расследованию убийств не спит уже которую ночь: по городу катится волна необычных преступлений. Своеобразие их в том, что все преступники — вполне добропорядочные и законопослушные граждане, в которых будто бы сам черт вселился, заставляя их творить всяческие кошмарные, ненормальные вещи. У детектива Тома Бека, ведущего следствие по этому делу, просто голова кругом идет…
И уж, конечно же, меньше всего ему хочется оказывать всяческое содействие присланному сверху сотруднику ФБР Ллойду Гэллагеру, — человеку со странностями, логику которого понять, кажется, абсолютно невозможно. Но что если и вправду это дело рук инопланетян, вселяющихся в тела землян?…



Кодек: x264
Качество: BDRip 1080p
Видео: 1920x1080, 13000 kbps, 23,976 fps
Аудио #1: AC-3, 2 ch, 192 kbps (Rus) - DVO
Аудио #2: AC-3, 2 ch, 192 kbps (Rus) - AVO Гаврилов Андрей Юрьевич
Аудио #3: DTS, 6 ch, 1509 kbps (Eng)
Субтитры: английские
Общее
Уникальный идентификатор : 237015414370697714527795672689463161117 (0xB24F82254F0F69F493F63509170A711D)
Полное имя : Скрытые (The Hidden) 1987 BDRip 1080p.mkv
Формат : Matroska
Версия формата : Version 2
Размер файла : 10,1 Гбайт
Продолжительность : 1 ч. 37 м.
Общий поток : 14,9 Мбит/сек
Дата кодирования : UTC 2017-10-12 07:25:43
Программа кодирования : mkvmerge v4.0.0 ('The Stars were mine') сборка от Jun 6 2010 16:18:42
Библиотека кодирования : libebml v1.0.0 + libmatroska v1.0.0

Видео
Идентификатор : 1
Формат : AVC
Формат/Информация : Advanced Video Codec
Профиль формата : High@L4.1
Параметр CABAC формата : Да
Параметр ReFrames формата : 4 кадра
Идентификатор кодека : V_MPEG4/ISO/AVC
Продолжительность : 1 ч. 37 м.
Битрейт : 13,0 Мбит/сек
Ширина : 1920 пикселей
Высота : 1080 пикселей
Соотношение сторон : 16:9
Режим частоты кадров : Постоянный
Частота кадров : 23,976 (24000/1001) кадра/сек
Цветовое пространство : YUV
Субдискретизация насыщенности : 4:2:0
Битовая глубина : 8 бит
Тип развёртки : Прогрессивная
Бит/(Пиксели*Кадры) : 0.261
Размер потока : 8,61 Гбайт (85%)
Библиотека кодирования : x264 core 152 r2851 ba24899
Настройки программы : cabac=1 / ref=4 / deblock=1:-3:-3 / analyse=0x3:0x113 / me=umh / subme=8 / psy=1 / psy_rd=1.10:0.00 / mixed_ref=1 / me_range=32 / chroma_me=1 / trellis=2 / 8x8dct=1 / cqm=0 / deadzone=21,11 / fast_pskip=1 / chroma_qp_offset=-2 / threads=24 / lookahead_threads=4 / sliced_threads=0 / nr=0 / decimate=1 / interlaced=0 / bluray_compat=0 / constrained_intra=0 / bframes=3 / b_pyramid=2 / b_adapt=2 / b_bias=0 / direct=3 / weightb=1 / open_gop=0 / weightp=2 / keyint=240 / keyint_min=24 / scenecut=40 / intra_refresh=0 / rc_lookahead=50 / rc=2pass / mbtree=1 / bitrate=13000 / ratetol=1.0 / qcomp=0.60 / qpmin=0 / qpmax=69 / qpstep=4 / cplxblur=20.0 / qblur=0.5 / ip_ratio=1.40 / aq=3:0.75
Язык : English
Default : Нет
Forced : Нет

Аудио #1
Идентификатор : 2
Формат : AC-3
Формат/Информация : Audio Coding 3
Расширение режима : CM (complete main)
Параметр Endianness формата : Big
Идентификатор кодека : A_AC3
Продолжительность : 1 ч. 37 м.
Вид битрейта : Постоянный
Битрейт : 192 Кбит/сек
Каналы : 2 канала
Расположение каналов : Front: L R
Частота : 48,0 КГц
Частота кадров : 31,250 кадров/сек (1536 spf)
Метод сжатия : С потерями
Размер потока : 133 Мбайт (1%)
Заголовок : DVO
Язык : Russian
Default : Нет
Forced : Нет

Аудио #2
Идентификатор : 3
Формат : AC-3
Формат/Информация : Audio Coding 3
Расширение режима : CM (complete main)
Параметр Endianness формата : Big
Идентификатор кодека : A_AC3
Продолжительность : 1 ч. 37 м.
Вид битрейта : Постоянный
Битрейт : 192 Кбит/сек
Каналы : 2 канала
Расположение каналов : Front: L R
Частота : 48,0 КГц
Частота кадров : 31,250 кадров/сек (1536 spf)
Метод сжатия : С потерями
Размер потока : 133 Мбайт (1%)
Заголовок : AVO Гаврилов Андрей Юрьевич
Язык : Russian
Default : Нет
Forced : Нет

Аудио #3
Идентификатор : 4
Формат : DTS
Формат/Информация : Digital Theater Systems
Режим : 16
Параметр Endianness формата : Big
Идентификатор кодека : A_DTS
Продолжительность : 1 ч. 37 м.
Вид битрейта : Постоянный
Битрейт : 1509 Кбит/сек
Каналы : 6 каналов
Расположение каналов : Front: L C R, Side: L R, LFE
Частота : 48,0 КГц
Частота кадров : 93,750 кадра/сек (512 spf)
Битовая глубина : 24 бит
Метод сжатия : С потерями
Размер потока : 1,02 Гбайт (10%)
Язык : Russian
Default : Нет
Forced : Нет

Текст #1
Идентификатор : 5
Формат : UTF-8
Идентификатор кодека : S_TEXT/UTF8
Идентификатор кодека/Информация : UTF-8 Plain Text
Язык : English
Default : Нет
Forced : Нет

Текст #2
Идентификатор : 6
Формат : UTF-8
Идентификатор кодека : S_TEXT/UTF8
Идентификатор кодека/Информация : UTF-8 Plain Text
Заголовок : SDH
Язык : English
Default : Нет
Forced : Нет

Меню
00:00:00.000 : en:00:00:00.000
00:03:04.726 : en:00:03:04.726
00:08:19.457 : en:00:08:19.457
00:12:20.865 : en:00:12:20.865
00:16:27.528 : en:00:16:27.528
00:21:30.456 : en:00:21:30.456
00:24:57.079 : en:00:24:57.079
00:29:15.587 : en:00:29:15.587
00:31:44.319 : en:00:31:44.319
00:35:40.180 : en:00:35:40.180
00:41:32.031 : en:00:41:32.031
00:45:39.904 : en:00:45:39.904
00:51:02.059 : en:00:51:02.059
01:00:25.413 : en:01:00:25.413
01:06:59.891 : en:01:06:59.891
01:11:10.016 : en:01:11:10.016
01:15:06.627 : en:01:15:06.627
01:20:38.292 : en:01:20:38.292
01:25:52.689 : en:01:25:52.689
01:29:09.803 : en:01:29:09.803
01:32:58.490 : en:01:32:58.490




Скачать Скрытые.The.Hidden.(Джек.Шолдер).[1987.ужасы.фантастика.боевик.триллер.криминал.BDRip].[1080p].[DVO]+[AVO.(Гаврилов)]+[Eng]+[Sub.Eng].torrent без регистрации
Золото ЗОЛОТАЯ РАЗДАЧА! СКАЧАННОЕ НЕ ЗАСЧИТЫВАЕТСЯ! Золото
Дата: Зарегистрирован   [ Тип: внешний ] Как тут cкачать?
MAGNET ссылка
MAGNET ссылка


Скачать .torrent

51 KB

Статус: проверено DHT
Скачан: торрент - 7 раз, раздача полностью - 5 раз
Размер: 10,1 GB
Оценка:  - (Голосов: 0)
Поблагодарили: 1
Поделиться ссылкой на эту раздачу с друзьями:
В контактеFacebookОдноклассникиTwitterLivejournalМой МирLiveinternet
 

 
Показать сообщения:    


Вы не можете начинать темы
Вы не можете отвечать на сообщения
Вы не можете редактировать свои сообщения
Вы не можете удалять свои сообщения
Вы не можете голосовать в опросах
Вы не можете прикреплять файлы к сообщениям
Вы можете скачивать файлы