Loading...
Error

Скачать Вспомнить все / Total Recall 2070 (Сезон 01) (Марио Аццопарди, Хорхе Монтеси, Дэвид Уарри-Смит) [1999, фантастика, боевик, DVDRip] [MVO] торрент без регистрации

Статистика раздачи
Размер:  7,97 GB   |    Скачан:  26 раз
Сидов:  1  [  0 KB/s  ]  
 
 
 
Автор Сообщение

leon030982

[] 

Вспомнить все / Total Recall 2070



Год выпуска: 1999
Жанр: фантастика, боевик
Продолжительность: 22x ~00:44:44
Перевод: Профессиональный (многоголосый, закадровый)

Режиссеры: Марио Аццопарди, Хорхе Монтеси, Дэвид Уарри-Смит

В ролях: Майкл Истон, Карл Прюнер, Синтия Престон, Майкл Энтони Роулинз, Джудит Крант, Мэттью Беннетт, Дэймон Д’Оливера, Джон Бекавак
Питер Фёрт, Паулино Нюнс

Описание: 2070 год. Планета Земля управляется единым правительством. А Марс и некоторые другие планеты давно колонизированы. Манипуляции с памятью людей стали частью повседневной жизни и новым массовым наркотиком. Распутывая сложнейшие преступления, полицейский Дэвид Хьюм и его напарник-андроид Ян Фарв противостоят хакерам и технонаркоманам, андроидам-предателям и могущественным корпорациям. Чтобы защитить закон и остаться в живых, им часто приходится играть не по правилам...



Качество: DVDRip
Формат: AVI
Видео кодек: DivX
Аудио кодек: MP3
Видео: 512x384 (1.33:1), 23.976 fps, DivX Codec 4.x ~?:% kbps avg
Аудио Rus: 48 kHz, MPEG Layer 3, 2 ch, ~128.00 kbps avg
Аудио Eng: 48 kHz, MPEG Layer 3, 2 ch, ~128.00 kbps avg
General
Complete name : E:\Total_recall_2070\total_recall_2070.s01e01.rus.eng.dvdrip.novafilm.avi
Format : AVI
Format/Info : Audio Video Interleave
File size : 398 MiB
Duration : 43mn 58s
Overall bit rate : 1 267 Kbps
Writing application : VirtualDubMod 1.5.10.2 (build 2542/release)
Writing library : VirtualDubMod build 2542/release

Video
ID : 0
Format : MPEG-4 Visual
Format profile : Advanced Simple@L5
Format settings, BVOP : 2
Format settings, QPel : No
Format settings, GMC : No warppoints
Format settings, Matrix : Default (H.263)
Muxing mode : Packed bitstream
Codec ID : XVID
Codec ID/Hint : XviD
Duration : 43mn 58s
Bit rate : 950 Kbps
Width : 512 pixels
Height : 384 pixels
Display aspect ratio : 4:3
Frame rate : 23.976 fps
Color space : YUV
Chroma subsampling : 4:2:0
Bit depth : 8 bits
Scan type : Progressive
Compression mode : Lossy
Bits/(Pixel*Frame) : 0.202
Stream size : 299 MiB (75%)
Writing library : XviD 1.1.2 (UTC 2006-11-01)

Audio #1
ID : 1
Format : MPEG Audio
Format version : Version 1
Format profile : Layer 3
Mode : Joint stereo
Mode extension : MS Stereo
Codec ID : 55
Codec ID/Hint : MP3
Duration : 43mn 58s
Bit rate mode : Constant
Bit rate : 128 Kbps
Channel(s) : 2 channels
Sampling rate : 48.0 KHz
Compression mode : Lossy
Stream size : 40.3 MiB (10%)
Alignment : Aligned on interleaves

Audio #2
ID : 2
Format : MPEG Audio
Format version : Version 1
Format profile : Layer 3
Mode : Joint stereo
Codec ID : 55
Codec ID/Hint : MP3
Duration : 43mn 58s
Bit rate mode : Constant
Bit rate : 128 Kbps
Channel(s) : 2 channels
Sampling rate : 48.0 KHz
Compression mode : Lossy
Stream size : 40.3 MiB (10%)
Alignment : Aligned on interleaves




Скачать Вспомнить.все.Total.Recall.2070.(Сезон.01).(Марио.Аццопарди.Хорхе.Монтеси.Дэвид.Уарри-Смит).[1999.фантастика.боевик.DVDRip].[MVO].torrent без регистрации
Золото ЗОЛОТАЯ РАЗДАЧА! СКАЧАННОЕ НЕ ЗАСЧИТЫВАЕТСЯ! Золото
Дата: Зарегистрирован   [ Тип: внутренний ] Как тут cкачать?
MAGNET ссылка
MAGNET ссылка


Скачать .torrent

42 KB

Статус: проверено DHT
Скачан: торрент - 26 раз, раздача полностью - 17 раз
Размер: 7,97 GB
Оценка:  5 (Голосов: 1)
Поблагодарили: 1
Поделиться ссылкой на эту раздачу с друзьями:
В контактеFacebookОдноклассникиTwitterLivejournalМой МирLiveinternet
 

 
Показать сообщения:    


Вы не можете начинать темы
Вы не можете отвечать на сообщения
Вы не можете редактировать свои сообщения
Вы не можете удалять свои сообщения
Вы не можете голосовать в опросах
Вы не можете прикреплять файлы к сообщениям
Вы можете скачивать файлы