Loading...
Error

Скачать Синяя бездна / Страх глубины / 47 Meters Down (Йоханнес Робертс) [2017, Ужасы, триллер, драма, BDRip][1080p] [DUB RUS+MVO UKR iTunes] [R.G. GoldenShara] торрент без регистрации

Статистика раздачи
Размер:  4,43 GB   |    Скачан:  79 раз
Сидов:  3  [  6 KB/s  ]   Личеров:  1  [  0 KB/s  ]  

 
 
 
Автор Сообщение

Magnetto83

[] 


Синяя бездна / Страх глубины / 47 Meters Down


Год выпуска: 2017
Выпущено: Великобритания, США, Доминикана | Altitude Film Sales, Dimension Films, Dragon Root Securities
Жанр: Ужасы, триллер, драма
Продолжительность: 01:29:16
Перевод 1: Профессиональный (полное дублирование) | iTunes Rus |
Перевод 2: Профессиональный (многоголосый) | iTunes Ukr|
Субтитры: Английские (Full+SHD)
Навигация по главам: Сохранены оригинальные главы как на Blu-ray

Слоган: «В 47 метрах от спасения. Всего час кислорода. Среди хищников»

Режиссер: Йоханнес Робертс

В ролях: Мэнди Мур, Клер Холт, Крис Дж. Джонсон, Яни Гельман, Сантьяго Сегура, Мэттью Модайн, Майра Хуарес, Аксель Мансилла

Описание: Отдыхая на солнечных пляжах Мексики, Лиза и ее сестра Кейт решаются на погружение в клетке к большим белым акулам. Но зрелищный аттракцион оборачивается кошмаром, когда клетка с двумя девушками срывается на океанское дно. Помощи ждать неоткуда, а кислорода остается лишь на час. Единственный выход из смертельной ловушки — плыть вверх через толщу воды, которая кишит самыми свирепыми хищниками океана.



Возраст: 16+ (зрителям, достигшим 16 лет)
Рейтинг MPAA: PG-13 (детям до 13 лет просмотр нежелателен)

Качество: BDRip 1080p
Формат: MKV
Видео кодек: H.264
Аудио кодек: AC3
Видео: 1920x804 (2.40:1), 6361 Кбит/с, 23.976 fps
Аудио: Русский, Украинский Dolby Digital 5.1 (384 Кбит/с)


x264 [info]: frame I:1073 Avg QP:13.63 size:173641
x264 [info]: frame P:29634 Avg QP:16.44 size: 61958
x264 [info]: frame B:101471 Avg QP:18.56 size: 21877
x264 [info]: consecutive B-frames: 3.1% 4.4% 10.1% 10.2% 6.6% 60.0% 2.5% 0.6% 2.6%
x264 [total]: encoded 132178 frames, 1.17 fps, 6156.05 kb/s



General
Complete name : G:\Видео\Мои Рипы 1080p\Кино-Хиты 2017\Страх глубины 2017 Dub Rus+Mvo Ukr BDRip 1080p.mkv
Format : Matroska
Format version : Version 4 / Version 2
File size : 4.43 GiB
Duration : 1h 29mn
Overall bit rate : 7 104 Kbps
Movie name : Синяя Бездна \ Страх глубины 2017 Dub Rus+Mvo Ukr BDRip 1080p By R.G.GoldenShara
Encoded date : UTC 2017-10-08 22:41:59
Writing application : mkvmerge v7.0.0 ('Where We Going') 64bit built on Jun 9 2014 15:16:27
Writing library : libebml v1.3.0 + libmatroska v1.4.1
Attachements : Cover.jpg
DURATION : 01:28:16.999000000
NUMBER_OF_FRAMES : 1128
NUMBER_OF_BYTES : 33091
_STATISTICS_WRITING_APP : mkvmerge v7.0.0 ('Where We Going') 64bit built on Jun 9 2014 15:16:27
_STATISTICS_WRITING_DATE_UTC : 2017-10-08 22:41:59
_STATISTICS_TAGS : BPS DURATION NUMBER_OF_FRAMES NUMBER_OF_BYTES

Video
ID : 1
Format : AVC
Format/Info : Advanced Video Codec
Format profile : High@L4.1
Format settings, CABAC : Yes
Format settings, ReFrames : 5 frames
Codec ID : V_MPEG4/ISO/AVC
Duration : 1h 29mn
Bit rate : 6 361 Kbps
Width : 1 920 pixels
Height : 804 pixels
Display aspect ratio : 2.40:1
Frame rate mode : Constant
Frame rate : 23.976 fps
Color space : YUV
Chroma subsampling : 4:2:0
Bit depth : 8 bits
Scan type : Progressive
Bits/(Pixel*Frame) : 0.172
Stream size : 3.86 GiB (87%)
Title : Страх глубины 2017 BDRip 1080p By Magnetto 83
Writing library : x264 core 146 r2538 121396c
Encoding settings : cabac=1 / ref=5 / deblock=1:-3:-3 / analyse=0x3:0x113 / me=umh / subme=11 / psy=1 / psy_rd=1.00:0.00 / mixed_ref=1 / me_range=32 / chroma_me=1 / trellis=2 / 8x8dct=1 / cqm=0 / deadzone=21,11 / fast_pskip=0 / chroma_qp_offset=-2 / threads=3 / lookahead_threads=1 / sliced_threads=0 / nr=0 / decimate=1 / interlaced=0 / bluray_compat=0 / constrained_intra=0 / bframes=8 / b_pyramid=2 / b_adapt=2 / b_bias=0 / direct=3 / weightb=1 / open_gop=0 / weightp=2 / keyint=250 / keyint_min=23 / scenecut=40 / intra_refresh=0 / rc=2pass / mbtree=0 / bitrate=6361 / ratetol=1.0 / qcomp=0.60 / qpmin=0 / qpmax=69 / qpstep=4 / cplxblur=20.0 / qblur=0.5 / ip_ratio=1.40 / pb_ratio=1.30 / aq=2:1.00
Language : English
Default : Yes
Forced : No

Audio #1
ID : 2
Format : AC-3
Format/Info : Audio Coding 3
Mode extension : CM (complete main)
Format settings, Endianness : Big
Codec ID : A_AC3
Duration : 1h 29mn
Bit rate mode : Constant
Bit rate : 384 Kbps
Channel(s) : 6 channels
Channel positions : Front: L C R, Side: L R, LFE
Sampling rate : 48.0 KHz
Compression mode : Lossy
Stream size : 245 MiB (5%)
Title : DD 5.1 @ 384 kbps - Dub | iTunes |
Language : Russian
Default : Yes
Forced : No
DURATION : 01:29:16.384000000
NUMBER_OF_FRAMES : 167387
NUMBER_OF_BYTES : 257106432
_STATISTICS_WRITING_APP : mkvmerge v7.0.0 ('Where We Going') 64bit built on Jun 9 2014 15:16:27
_STATISTICS_WRITING_DATE_UTC : 2017-10-08 22:41:59
_STATISTICS_TAGS : BPS DURATION NUMBER_OF_FRAMES NUMBER_OF_BYTES

Audio #2
ID : 3
Format : AC-3
Format/Info : Audio Coding 3
Mode extension : CM (complete main)
Format settings, Endianness : Big
Codec ID : A_AC3
Duration : 1h 29mn
Bit rate mode : Constant
Bit rate : 384 Kbps
Channel(s) : 6 channels
Channel positions : Front: L C R, Side: L R, LFE
Sampling rate : 48.0 KHz
Compression mode : Lossy
Stream size : 245 MiB (5%)
Title : DD 5.1 @ 384 kbps - Mvo | iTunes |
Language : Ukrainian
Default : No
Forced : No

Text #1
ID : 4
Format : UTF-8
Codec ID : S_TEXT/UTF8
Codec ID/Info : UTF-8 Plain Text
Title : Полные
Language : Russian
Default : No
Forced : No

Text #2
ID : 5
Format : UTF-8
Codec ID : S_TEXT/UTF8
Codec ID/Info : UTF-8 Plain Text
Title : SDH
Language : English
Default : No
Forced : No

Menu
00:00:00.000 : :00:00:00.000
00:06:36.229 : :00:06:36.229
00:10:12.946 : :00:10:12.946
00:16:08.467 : :00:16:08.467
00:20:51.333 : :00:20:51.333
00:27:36.530 : :00:27:36.530
00:31:37.771 : :00:31:37.771
00:36:18.968 : :00:36:18.968
00:42:00.685 : :00:42:00.685
00:46:39.005 : :00:46:39.005
00:52:06.415 : :00:52:06.415
00:57:23.940 : :00:57:23.940
01:02:45.553 : :01:02:45.553
01:07:36.719 : :01:07:36.719
01:13:12.847 : :01:13:12.847
01:18:09.935 : :01:18:09.935








Скачать Синяя.бездна.Страх.глубины.47.Meters.Down.(Йоханнес.Робертс).[2017.Ужасы.триллер.драма.BDRip][1080p].[DUB.RUS+MVO.UKR.iTunes].[R.G.GoldenShara].torrent без регистрации
Золото ЗОЛОТАЯ РАЗДАЧА! СКАЧАННОЕ НЕ ЗАСЧИТЫВАЕТСЯ! Золото
Дата: Зарегистрирован   [ Тип: внутренний ] Как тут cкачать?
MAGNET ссылка
MAGNET ссылка


Скачать .torrent

12 KB

Статус: Τ временная раздача
Скачан: торрент - 79 раз, раздача полностью - 63 раз
Размер: 4,43 GB
Оценка:  5 (Голосов: 3)
Поблагодарили: 5
Поделиться ссылкой на эту раздачу с друзьями:
В контактеFacebookОдноклассникиTwitterLivejournalМой МирLiveinternet
 

 

Голден Шура

[] 

Magnetto83 если бы не твой рип, даже не узнал бы про этот фильм (в последнее время плохо слежу за новинками). Фильм ещё не смотрел, но люблю данную тематику, так что надеюсь фильм придётся по душе! Спасибо!

P.S. Смотрю в 4.37 не уместилось? Болванки уходят в прошлое или всего лишь исключение из правил?)
 

Magnetto83

[] 

ab Пожалуйста! По поводу болванок не могу не согласится! Но в этот раз дело во второй звуковой дорожке. Я её не планировал. Добавил в последний момент! Если будет лицензия, то заменю на одну с 640 кбпс. А так, я думаю кому надо, те уберут лишнюю звуковую дорожку. ad
 

Голден Шура

[] 

Посмотрел. Фильм отличный! Этакая смесь Отмели и Дрейфа. Magnetto83, ещё раз спасибо за предоставленный рип! Забираю в коллекцию!
 

Magnetto83

[] 

az Пожалуйста! bs Рад, что фильм понравился! ad
 
Показать сообщения:    


Вы не можете начинать темы
Вы не можете отвечать на сообщения
Вы не можете редактировать свои сообщения
Вы не можете удалять свои сообщения
Вы не можете голосовать в опросах
Вы не можете прикреплять файлы к сообщениям
Вы можете скачивать файлы