Loading...
Error

Скачать Детективное агентство Дирка Джентли / Dirk Gently's Holistic Detective Agency (Сезон 02, серии 01-08 из 10) (Пако Кабесас, Дин Паризо, Майкл Патрик Джэнн) [2017, фантастика, триллер, драма, WEBRip] [1080p] [MVO] (Jaskier) + Original торрент без регистрации

Статистика раздачи
Размер:  15,75 GB   |    Скачан:  15 раз
Сидов:  13  [  0 KB/s  ]   Личеров:  7  [  0 KB/s  ]  
 
 
 
Автор Сообщение

leon030982

[] 

Детективное агентство Дирка Джентли | Dirk Gently's Holistic Detective Agency
Год выпуска: 2017
Страна: США, Великобритания
Жанр: комедия, фантастика
Продолжительность: ~ 00:46:00
Перевод: Профессиональный (многоголосый закадровый) | Jaskier

Режиссёр: Макс Лэндис

В ролях: Кристиан Бако, Сэмюэл Барнетт, Элайджа Вуд, Нил Браун Мл., Аарон Дуглас, Фиона Дуриф, Майкл Эклунд, Джейд Эшете, Мфо Коахо

Описание: Главный герой этого сериала никогда не отступит перед сложными расследованиями. Детектив Джентли и его верный, но жутко недовольный всем на свете помощник Тодд готовы отправиться на раскрытие очередного преступления. Каждый новый сезон эти персонажи будут расследовать сложное запутанное дело. В этот раз они сталкиваются с тайной, которую никто не мог раскрыть уже давно. На пути главных героев ожидают реальные опасности. Каждая новая серия - это очередной шаг к разгадке, а также очередное испытание, которое Джентли и Тодду предстоит пройти, несмотря на трудности и некоторые проблемы с логическим мышлением.



Качество: WEBRip 1080p
Формат: MKV
Видео: 1920x1080 (16:9) | X264 | ~7000 kbps | 23.976 fps
Аудио 1: AC3 | 48 KHz | 2.0 | ~192 kbps [RUS]
Аудио 2: AC3 | 48 KHz | 2.0 | ~192 kbps [ENG]
Субтитры: отсутствуют

Добавлена 8-я серия!
Переведено и озвучено: студией Jaskier
Общее
Уникальный идентификатор                 : 251629356785285780117769064865601373405 (0xBD4E0D22C7F90AD4814518BC209B44DD)
Полное имя                               : E:\JASKiER\Dirk Gently's Holistic Detective Agency. Season 2 (WEBRip l 1080p l Jaskier)\Dirk.Gently's.Holistic.Detective.Agency.S02E01.1080p.WEBRip.x264-Jaskier.mkv
Формат                                   : Matroska
Версия формата                           : Version 2
Размер файла                             : 2,09 Гбайт
Продолжительность                        : 43 м. 34 с.
Общий поток                              : 6854 Кбит/сек
Дата кодирования                         : UTC 2017-10-17 11:10:37
Программа кодирования                    : mkvmerge v7.8.0 ('River Man') 32bit built on Apr  3 2015 12:11:22
Библиотека кодирования                   : libebml v1.3.1 + libmatroska v1.4.2

Видео
Идентификатор                            : 1
Формат                                   : AVC
Формат/Информация                        : Advanced Video Codec
Профиль формата                          : High@L4.1
Параметр CABAC формата                   : Да
Параметр RefFrames формата               : 4 кадра
Идентификатор кодека                     : V_MPEG4/ISO/AVC
Продолжительность                        : 43 м. 34 с.
Битрейт                                  : 6334 Кбит/сек
Ширина                                   : 1920 пикселей
Высота                                   : 1080 пикселей
Соотношение сторон                       : 16:9
Режим частоты кадров                     : Постоянный
Частота кадров                           : 23,976 (24000/1001) кадра/сек
Цветовое пространство                    : YUV
Субдискретизация насыщенности            : 4:2:0
Битовая глубина                          : 8 бит
Тип развёртки                            : Прогрессивная
Бит/(Пиксели*Кадры)                      : 0.127
Размер потока                            : 1,93 Гбайт (92%)
Библиотека кодирования                   : x264 core 152 r2851 ba24899
Настройки программы                      : cabac=1 / ref=4 / deblock=1:-3:-3 / analyse=0x3:0x113 / me=umh / subme=9 / psy=1 / psy_rd=1.00:0.15 / mixed_ref=1 / me_range=16 / chroma_me=1 / trellis=2 / 8x8dct=1 / cqm=0 / deadzone=21,11 / fast_pskip=1 / chroma_qp_offset=-2 / threads=34 / lookahead_threads=2 / sliced_threads=0 / nr=0 / decimate=1 / interlaced=0 / bluray_compat=0 / constrained_intra=0 / bframes=3 / b_pyramid=2 / b_adapt=2 / b_bias=0 / direct=3 / weightb=1 / open_gop=0 / weightp=2 / keyint=240 / keyint_min=23 / scenecut=40 / intra_refresh=0 / rc_lookahead=50 / rc=crf / mbtree=1 / crf=17.0 / qcomp=0.60 / qpmin=0 / qpmax=69 / qpstep=4 / ip_ratio=1.40 / aq=1:0.80
Язык                                     : English
Default                                  : Да
Forced                                   : Нет
Цветовой диапазон                        : Limited
Коэффициенты матрицы                     : BT.709

Аудио #1
Идентификатор                            : 2
Формат                                   : AC-3
Формат/Информация                        : Audio Coding 3
Параметр Endianness формата              : Big
Идентификатор кодека                     : A_AC3
Продолжительность                        : 43 м. 34 с.
Вид битрейта                             : Постоянный
Битрейт                                  : 192 Кбит/сек
Каналы                                   : 2 канала
Расположение каналов                     : Front: L R
Частота                                  : 48,0 КГц
Частота кадров                           : 31,250 кадров/сек (1536 spf)
Битовая глубина                          : 16 бит
Метод сжатия                             : С потерями
Размер потока                            : 59,8 Мбайт (3%)
Заголовок                                : Jaskier
Язык                                     : Russian
ServiceKind/String                       : Complete Main
Default                                  : Да
Forced                                   : Нет

Аудио #2
Идентификатор                            : 3
Формат                                   : AC-3
Формат/Информация                        : Audio Coding 3
Параметр Endianness формата              : Big
Идентификатор кодека                     : A_AC3
Продолжительность                        : 43 м. 34 с.
Вид битрейта                             : Постоянный
Битрейт                                  : 192 Кбит/сек
Каналы                                   : 2 канала
Расположение каналов                     : Front: L R
Частота                                  : 48,0 КГц
Частота кадров                           : 31,250 кадров/сек (1536 spf)
Битовая глубина                          : 16 бит
Метод сжатия                             : С потерями
Размер потока                            : 59,8 Мбайт (3%)
Язык                                     : English
ServiceKind/String                       : Complete Main
Default                                  : Нет
Forced                                   : Нет
Когда раздача ведётся путём добавления новых серий, при каждом добавлении создётся новый торрент. Чтобы начать докачку новой серии, пользователям необходимо сделать следующее:
(1) остановить скачивание,
(2) удалить старый торрент у себя из клиента (старые серии удалять не надо),
(3) скачать новый торрент и запустить его у себя в клиенте вместо старого, при этом указать клиенту путь в старую папку, куда и должно происходить скачивание новых серий.
Ваш клиент при этом должен произвести хеширование (проверку) старой папки (если не производит сам - помогите ему сделать это), и будет докачивать только те серии, которых у вас ещё нет. Старые серии при этом не удаляются, а продолжают раздаваться!
Eсли вы уже удалили старые серии, то предотвратить повторную закачку старых серий можно, отжав галочку в соответсвующих местах при запуске нового торрента. По возможности, желательно не удалять старые серии как можно дольше, чтобы релизёр не столько продолжал раздавать старые серии, а смог сконцентрироваться на новых.



Скачать Детективное.агентство.Дирка.Джентли.Dirk.Gently's.Holistic.Detective.Agency.(Сезон.02.серии.01-08.из.10).(Пако.Кабесас.Дин.Паризо.Майкл.Патрик.Джэнн).[2017.фантастика.триллер.драма.WEBRip].[1080p].[MVO].(Jaskier).+.Original.torrent без регистрации
Золото ЗОЛОТАЯ РАЗДАЧА! СКАЧАННОЕ НЕ ЗАСЧИТЫВАЕТСЯ! Золото
Дата: Зарегистрирован   [ Тип: внешний ] Как тут cкачать?
MAGNET ссылка
MAGNET ссылка


Скачать .torrent

80 KB

Статус: проверено DHT
Скачан: торрент - 15 раз, раздача полностью - 1 раз
Размер: 15,75 GB
Оценка:  - (Голосов: 0)
Поблагодарили: 0
Поделиться ссылкой на эту раздачу с друзьями:
В контактеFacebookОдноклассникиTwitterLivejournalМой МирLiveinternet
 

 
Показать сообщения:    


Вы не можете начинать темы
Вы не можете отвечать на сообщения
Вы не можете редактировать свои сообщения
Вы не можете удалять свои сообщения
Вы не можете голосовать в опросах
Вы не можете прикреплять файлы к сообщениям
Вы можете скачивать файлы