Loading...
Error

Скачать Ванька Грозный (Дмитрий Петрунь) [2008, комедия, DVDRip] торрент без регистрации

Статистика раздачи
Размер:  745 MB   |    Скачан:  18 раз
Сидов:  1  [  0 KB/s  ]  
 
 
 
Автор Сообщение

Marsianka

[] 

Информация о фильме
Название: Ванька Грозный
Год выхода: 2008
Жанр: комедия
Режиссер: Дмитрий Петрунь
В ролях: Денис Бондарков, Юрий Горбач, Андрей Казаков, Ирина Пегова, Семен Фурман, Игорь Ясулович

О фильме:
В жизни бизнесмена Егора Будылина наступила черная полоса – ни работа, ни личная жизнь не ладятся. Тут-то судьба и дает ему шанс изменить свою жизнь. На проселочной дороге иномарка Егора сталкивается с… трактором местного колхозника Ивана! Деревенский пьяница оказывается похож на предпринимателя как брат-близнец, и Егору в голову приходит безумная идея. Он хочет убежать от своих неудач и пожить немного деревенской жизнью, поэтому подговаривает Ивана на время поменяться местами.Поначалу все идет как нельзя лучше. Прямодушному трактористу удается решить все проблемы в бизнесе, снова стать любимым "мужем" и заботливым "отцом". Егор не менее успешно справляется с ролью деревенского жителя – бросает пить, плодотворно работает и завоевывает сердце местной красавицы Зинки. Проблемы начинаются, когда настает время возвращать все на свои места.



Страна: Россия
Студия: Амедиа
Продолжительность: 01:35:14
Перевод: Не требуется

Файл
Кодек: XviD
Качество: DVDRip
Видео: 624x352 (1.77:1), 25 fps, XviD build 73 ~956 kbps avg, 0.17 bit/pixel
Звук: 48 kHz, MPEG Layer 3, 2 ch, ~128.00 kbps avg
Субтитры: Отсутствует

Семпл
General
Complete name : D:Изготовление рипаVanka.Groznij.2008.DVDrip by shkiper.avi
Format : AVI
Format/Info : Audio Video Interleave
File size : 745 MiB
Duration : 1h 35mn
Overall bit rate : 1 094 Kbps
Writing application : VirtualDubMod 1.5.10.3 | www.virtualdub-fr.org || (build 2550/release)
Writing library : VirtualDubMod build 2550/release

Video
ID : 0
Format : MPEG-4 Visual
Format profile : Advanced Simple@L5
Format settings, BVOP : 1
Format settings, QPel : No
Format settings, GMC : No warppoints
Format settings, Matrix : Custom
Codec ID : XVID
Codec ID/Hint : XviD
Duration : 1h 35mn
Bit rate : 956 Kbps
Width : 624 pixels
Height : 352 pixels
Display aspect ratio : 16:9
Frame rate : 25.000 fps
Color space : YUV
Chroma subsampling : 4:2:0
Bit depth : 8 bits
Scan type : Progressive
Compression mode : Lossy
Bits/(Pixel*Frame) : 0.174
Stream size : 651 MiB (87%)
Writing library : XviD 73

Audio
ID : 1
Format : MPEG Audio
Format version : Version 1
Format profile : Layer 3
Codec ID : 55
Codec ID/Hint : MP3
Duration : 1h 35mn
Bit rate mode : Constant
Bit rate : 128 Kbps
Channel(s) : 2 channels
Sampling rate : 48.0 KHz
Compression mode : Lossy
Stream size : 87.2 MiB (12%)
Alignment : Aligned on interleaves
Interleave, duration : 40 ms (1.00 video frame)
Interleave, preload duration : 504 ms
Writing library : LAME3.99r
Encoding settings : -m s -V 4 -q 2 -lowpass 17 -b 128
Релиз от:



Скачать Ванька.Грозный.(Дмитрий.Петрунь).[2008.комедия.DVDRip].torrent без регистрации
Золото ЗОЛОТАЯ РАЗДАЧА! СКАЧАННОЕ НЕ ЗАСЧИТЫВАЕТСЯ! Золото
Дата: Зарегистрирован   [ Тип: внутренний ] Как тут cкачать?
MAGNET ссылка
MAGNET ссылка


Скачать .torrent

15 KB

Статус: проверено DHT
Скачан: торрент - 18 раз, раздача полностью - 2 раз
Размер: 745 MB
Оценка:  - (Голосов: 0)
Поблагодарили: 0
Поделиться ссылкой на эту раздачу с друзьями:
В контактеFacebookОдноклассникиTwitterLivejournalМой МирLiveinternet
 

 
Показать сообщения:    


Вы не можете начинать темы
Вы не можете отвечать на сообщения
Вы не можете редактировать свои сообщения
Вы не можете удалять свои сообщения
Вы не можете голосовать в опросах
Вы не можете прикреплять файлы к сообщениям
Вы можете скачивать файлы